Важное объявление!
У Нас Все раздачи мультитрекерные, при нуле пиров в релизах, можете смело вставать на закачку!
 
Автор Сообщение

HUNTER

Стаж:
4 года 4 месяца
Сообщений:
56842

Репутация: 101

[+] [-]
Вне форума [Профиль] [ЛС]

--Из машины / Ex Machina--«To erase the line between man and machine is to obscure the line between men and gods»-

Страна: Великобритания
Студия: DNA Films, Film4
Жанр: фантастика, драма
Год выпуска: 2015
Продолжительность: 01:48:00-Перевод: Профессиональный (дублированный) лицензия
Перевод 2: Одноголосый закадровый |А. Матвеев|
Субтитры: Русские (Blu-ray CEE), Русские (MartinaG), украинские (Blu-ray CEE), английские
Оригинальная аудиодорожка: английский-Режиссер: Алекс Гарленд / Alex Garland-В ролях: Донал Глисон, Кори Джонсон, Оскар Айзек, Алисия Викандер, Соноя Мизуно, , Симара А. Темплмен, , Тиффани Писани, Элина Алминас
Описание: В центре сюжета - молодой человек, которого нанимает миллиардер, сделавший состояние на высокотехнологичных разработках. Задача работника - провести неделю в удаленном местечке, тестируя женщину-робота с искусственным интеллектом.-| Сэмпл | IMDB | КиноПоиск |
-Качество видео: BDRip 1080p Источник: EX_MACHINA_HDCLUB
Формат видео: MKV
Видео: 1920x800 at 23.976 fps, x264, ~13,1 Mbps avg
Аудио: Russian: 48 kHz, AC3, 3/2 (L,C,R,l,r) + LFE ch, ~448.00 kbps avg |Лицензия, Blu-ray EUR|
Аудио 2: Russian: 48 kHz, DTS, 3/2 (L,C,R,l,r) + LFE ch, ~1536.00 kbps avg |Одноголосый закадровый, А. Матвеев|
Аудио 3: English: 48 kHz, DTS, 3/2 (L,C,R,l,r) + LFE ch, ~1536.00 kbps avg

Знаете ли вы, что...

  • Фелисити Джонс рассматривалась на роль Авы.
  • Название фильма происходит от латинского выражения «Deus Ex-Machina», которое означает «God From the Machine» («Бог из машины», «Неожиданная благополучная развязка») и происходит от фразы из греческих трагедий. Актер, играющий Бога, может скатиться вниз на платформе (машине) и решить проблемы героев, тем самым приведя все к «счастливому концу».

MediaInfo

ОбщееУникальный идентификатор : 214411569060505894514995632534823089002 (0xA14E2A8757C50FF6AAA61D58AF7BB36A)Полное имя : E:\MOVIES\Ex.Machina.2015.1080p.BluRay.2xRus.Eng.HDCLUB.mkvФормат : MatroskaВерсия формата : Version 2Размер файла : 12,8 ГбайтПродолжительность : 1 ч. 48 м.Общий поток : 16,9 Мбит/секНазвание фильма : Ex Machina (2015)Дата кодирования : UTC 2015-05-15 20:12:10Программа кодирования : mkvmerge v3.4.0 ('Rapunzel') built on May 15 2010 09:38:20Библиотека кодирования : libebml v0.8.0 + libmatroska v0.9.0
ВидеоИдентификатор : 1Формат : AVCФормат/Информация : Advanced Video CodecПрофиль формата : High@L4.1Параметр CABAC формата : ДаПараметр ReFrames формата : 5 кадровИдентификатор кодека : V_MPEG4/ISO/AVCПродолжительность : 1 ч. 48 м.Битрейт : 13,1 Мбит/секШирина : 1920 пикселейВысота : 800 пикселейСоотношение сторон : 2,40:1Режим частоты кадров : ПостоянныйЧастота кадров : 23,976 кадра/секЦветовое пространство : YUVСубдискретизация насыщенности : 4:2:0Битовая глубина : 8 битТип развёртки : ПрогрессивнаяБит/(Пиксели*Кадры) : 0.356Размер потока : 9,90 Гбайт (78%)Заголовок : Ex Machina (2015)Библиотека кодирования : x264 core 142 r2431+42 c69a006 tMod [8-bit@all X86_64]Настройки программы : cabac=1 / ref=5 / deblock=1:-3:-3 / analyse=0x3:0x133 / me=umh / subme=11 / psy=1 / fade_compensate=0.00 / psy_rd=1.00:0.00 / mixed_ref=1 / me_range=48 / chroma_me=1 / trellis=2 / 8x8dct=1 / cqm=0 / deadzone=21,11 / fast_pskip=0 / chroma_qp_offset=-2 / threads=12 / lookahead_threads=2 / sliced_threads=0 / nr=0 / decimate=1 / interlaced=0 / bluray_compat=0 / constrained_intra=0 / fgo=0 / bframes=7 / b_pyramid=2 / b_adapt=2 / b_bias=0 / direct=1 / weightb=1 / open_gop=0 / weightp=2 / keyint=240 / keyint_min=23 / scenecut=40 / intra_refresh=0 / rc_lookahead=60 / rc=crf / mbtree=0 / crf=16.3000 / qcomp=0.60 / qpmin=0:0:0 / qpmax=69:69:69 / qpstep=4 / vbv_maxrate=50000 / vbv_bufsize=62500 / crf_max=0.0 / nal_hrd=none / filler=0 / ip_ratio=1.35 / pb_ratio=1.25 / aq=4:0.80 / aq-sensitivity=10.00 / aq-factor=1.00:1.00:1.00 / aq2=0 / aq3=0Язык : EnglishDefault : ДаForced : Нет
Аудио #1Идентификатор : 2Формат : AC-3Формат/Информация : Audio Coding 3Расширение режима : CM (complete main)Параметр Endianness формата : BigИдентификатор кодека : A_AC3Продолжительность : 1 ч. 48 м.Вид битрейта : ПостоянныйБитрейт : 448 Кбит/секКаналы : 6 каналовРасположение каналов : Front: L C R, Side: L R, LFEЧастота : 48,0 КГцБитовая глубина : 16 битМетод сжатия : С потерямиРазмер потока : 346 Мбайт (3%)Заголовок : AC3 5.1 @ 448 kbps - DUB, Blu-rayЯзык : RussianDefault : ДаForced : Нет
Аудио #2Идентификатор : 3Формат : DTSФормат/Информация : Digital Theater SystemsРежим : 16Параметр Endianness формата : BigИдентификатор кодека : A_DTSПродолжительность : 1 ч. 48 м.Вид битрейта : ПостоянныйБитрейт : 1509 Кбит/секКаналы : 6 каналовРасположение каналов : Front: L C R, Side: L R, LFEЧастота : 48,0 КГцБитовая глубина : 24 битМетод сжатия : С потерямиРазмер потока : 1,14 Гбайт (9%)Заголовок : DTS 5.1 @ 1536 kbps - VO, A. MatveevЯзык : RussianDefault : НетForced : Нет
Аудио #3Идентификатор : 4Формат : DTSФормат/Информация : Digital Theater SystemsРежим : 16Параметр Endianness формата : BigИдентификатор кодека : A_DTSПродолжительность : 1 ч. 48 м.Вид битрейта : ПостоянныйБитрейт : 1509 Кбит/секКаналы : 6 каналовРасположение каналов : Front: L C R, Side: L R, LFEЧастота : 48,0 КГцБитовая глубина : 24 битМетод сжатия : С потерямиРазмер потока : 1,14 Гбайт (9%)Заголовок : DTS 5.1 @ 1536 kbpsЯзык : EnglishDefault : НетForced : Нет
Текст #1Идентификатор : 5Формат : UTF-8Идентификатор кодека : S_TEXT/UTF8Идентификатор кодека/Информация : UTF-8 Plain TextЗаголовок : Blu-rayЯзык : RussianDefault : НетForced : Нет
Текст #2Идентификатор : 6Формат : UTF-8Идентификатор кодека : S_TEXT/UTF8Идентификатор кодека/Информация : UTF-8 Plain TextЗаголовок : MartinaGЯзык : RussianDefault : НетForced : Нет
Текст #3Идентификатор : 7Формат : UTF-8Идентификатор кодека : S_TEXT/UTF8Идентификатор кодека/Информация : UTF-8 Plain TextЗаголовок : Blu-rayЯзык : UkrainianDefault : НетForced : Нет
Текст #4Идентификатор : 8Формат : UTF-8Идентификатор кодека : S_TEXT/UTF8Идентификатор кодека/Информация : UTF-8 Plain TextЗаголовок : Blu-rayЯзык : EnglishDefault : НетForced : Нет
Меню00:00:00.000 : en:00:00:00.00000:04:34.940 : en:00:04:34.94000:11:16.634 : en:00:11:16.63400:15:08.157 : en:00:15:08.15700:23:38.750 : en:00:23:38.75000:31:57.999 : en:00:31:57.99900:36:05.163 : en:00:36:05.16300:40:26.757 : en:00:40:26.75700:45:56.378 : en:00:45:56.37800:53:28.954 : en:00:53:28.95401:00:26.079 : en:01:00:26.07901:04:01.253 : en:01:04:01.25301:07:19.076 : en:01:07:19.07601:13:22.021 : en:01:13:22.02101:16:56.110 : en:01:16:56.11001:21:36.515 : en:01:21:36.51501:27:36.833 : en:01:27:36.83301:32:54.150 : en:01:32:54.15001:38:51.007 : en:01:38:51.00701:42:26.931 : en:01:42:26.931

x264

x264 [info]: frame I:1216 Avg QP:14.40 size:111192
x264 [info]: frame P:46367 Avg QP:16.16 size: 49256
x264 [info]: frame B:143649 Avg QP:17.87 size: 28002
x264 [info]: consecutive B-frames: 3.7% 6.6% 11.0% 11.7% 14.2% 43.9% 4.9% 1.2% 1.1% 1.0% 0.7%

Скриншоты

Скриншоты с субтитрами

Скриншоты сравнения: Source / Encode

Encode- -Source-

Цитата

  • Сохранены оригинальные главы как на Blu-ray.
  • Озвучка А. Матвеева: Перевод - MartinaG, Заказ - будулайроманов, Работа со звуком - Переводман. Название оставлено латинским, потому что это часть фразеологизма "Деус Экс Махина", т.е. "Бог из Машины". В отрыве "Из Машины" выглядит не совсем как нужно. Ненорматив есть в количестве трёх-четырёх слов.
    Рип - Bloodfighter

_________________
Показать сообщения:    

Текущее время: Сегодня 17:35

Часовой пояс: GMT



Вы не можете начинать темы
Вы не можете отвечать на сообщения
Вы не можете редактировать свои сообщения
Вы не можете удалять свои сообщения
Вы не можете голосовать в опросах
Вы не можете прикреплять файлы к сообщениям
Вы не можете скачивать файлы
Наши партнеры: интернет магазин Ивановского трикотажа textilla.ru