Важное объявление!
У Нас Все раздачи мультитрекерные, при нуле пиров в релизах, можете смело вставать на закачку!
 
Автор Сообщение

HUNTER

Стаж:
4 года 4 месяца
Сообщений:
56798

Репутация: 101

[+] [-]
Вне форума [Профиль] [ЛС]

Иди и смотри
Страна: СССР
Жанр: драма, военный
Год выпуска: 1985
Продолжительность: 02:22:56-Перевод: Не требуется
Cубтитры: японские
Оригинальная аудиодорожка: русский-Режиссер: Элем Климов-В ролях: Алексей Кравченко, Ольга Миронова, Любомирас Лауцявичюс, Владас Багдонас, Юри Лумисте, Виктор Лоренц, Казимир Рабецкий, Евгений Тиличеев, Александр Берда, Г. Вельц
Описание: Картина основана на документальных фактах и обращается к «Хатынской повести» Адамовича. Авторами выбрано именно то место и те события, которые стали символом народной беды и страдания.
Флера — шестнадцатилетний мальчишка, откопавший среди обрывков колючей проволоки, ржавых пулеметных лент и простреленных касок карабин, и отправившийся в лес к партизанам. В начале фильма он совсем ребенок. В конце, пройдя через ужас карательной акции фашистов, становится взрослым, пугающе взрослым и даже — старым. Война исказила когда-то нежные, детские черты и превратила их в старческие морщины.-Тип релиза: Blu-ray disc
Контейнер: BDMV-Видео: MPEG-4 AVC Video 33679 kbps 1080p / 23,976 fps / 16:9 / High Profile 4.1-Аудио: LPCM Audio Russian 1536 kbps 2.0 / 48 kHz / 1536 kbps / 16-bit

BDInfo

DISC INFO:
Disc Title: Иди и смотри
Disc Size: 40 157 662 610 bytes
Protection: AACS
BD-Java: No
BDInfo: 0.5.8
PLAYLIST REPORT:
Name: 00000.MPLS
Length: 2:22:56.150 (h:m:s.ms)
Size: 39 756 902 400 bytes
Total Bitrate: 37,09 Mbps
VIDEO:
Codec Bitrate Description
----- ------- -----------
MPEG-4 AVC Video 33679 kbps 1080p / 23,976 fps / 16:9 / High Profile 4.1
AUDIO:
Codec Language Bitrate Description
----- -------- ------- -----------
LPCM Audio Russian 1536 kbps 2.0 / 48 kHz / 1536 kbps / 16-bit
SUBTITLES:
Codec Language Bitrate Description
----- -------- ------- -----------
Presentation Graphics Japanese 23,973 kbps
FILES:
Name Time In Length Size Total Bitrate
---- ------- ------ ---- -------------
00000.M2TS 0:00:00.000 2:22:28.581 39 744 589 824 37 194
00008.M2TS 2:22:28.581 0:00:07.048 1 751 040 1 987
00001.M2TS 2:22:35.630 0:00:18.893 10 162 176 4 303
00002.M2TS 2:22:54.524 0:00:01.626 399 360 1 964
CHAPTERS:
Number Time In Length Avg Video Rate Max 1-Sec Rate Max 1-Sec Time Max 5-Sec Rate Max 5-Sec Time Max 10Sec Rate Max 10Sec Time Avg Frame Size Max Frame Size Max Frame Time
------ ------- ------ -------------- -------------- -------------- -------------- -------------- -------------- -------------- -------------- -------------- --------------
1 0:00:00.000 0:10:04.103 33 859 kbps 48 977 kbps 00:02:24.477 40 565 kbps 00:09:51.465 38 582 kbps 00:05:27.785 176 511 bytes 596 395 bytes 00:02:11.089
2 0:10:04.103 0:09:56.971 33 815 kbps 49 222 kbps 00:15:32.723 40 386 kbps 00:14:36.792 39 226 kbps 00:14:36.625 176 296 bytes 647 011 bytes 00:17:47.941
3 0:20:01.074 0:08:28.049 33 753 kbps 49 668 kbps 00:27:33.109 39 893 kbps 00:23:42.337 37 441 kbps 00:25:03.376 175 971 bytes 596 367 bytes 00:28:16.778
4 0:28:29.124 0:11:21.472 33 887 kbps 47 990 kbps 00:38:21.924 40 586 kbps 00:38:03.239 37 400 kbps 00:38:03.239 176 671 bytes 631 721 bytes 00:39:36.040
5 0:39:50.596 0:11:49.500 33 703 kbps 51 928 kbps 00:50:37.409 40 275 kbps 00:50:37.409 38 761 kbps 00:50:37.409 175 713 bytes 651 740 bytes 00:50:37.451
6 0:51:40.096 0:10:07.898 33 884 kbps 46 995 kbps 00:52:54.421 39 929 kbps 01:01:07.372 37 870 kbps 01:01:03.993 176 655 bytes 602 620 bytes 00:52:55.255
7 1:01:47.995 0:07:48.384 33 805 kbps 48 892 kbps 01:03:09.660 39 879 kbps 01:03:09.035 38 311 kbps 01:02:21.696 176 242 bytes 643 476 bytes 01:06:39.995
8 1:09:36.380 0:09:23.354 33 804 kbps 49 018 kbps 01:15:12.633 40 000 kbps 01:11:53.767 38 122 kbps 01:15:12.466 176 240 bytes 547 649 bytes 01:11:53.183
9 1:18:59.735 0:11:03.746 33 633 kbps 49 414 kbps 01:23:28.753 40 466 kbps 01:25:47.725 38 537 kbps 01:28:39.522 175 348 bytes 566 878 bytes 01:21:10.156
10 1:30:03.481 0:10:49.190 33 941 kbps 48 330 kbps 01:34:30.664 40 257 kbps 01:34:03.095 39 002 kbps 01:32:41.806 176 951 bytes 472 761 bytes 01:31:58.596
11 1:40:52.671 0:10:09.442 33 789 kbps 47 267 kbps 01:48:21.620 40 324 kbps 01:49:48.039 38 186 kbps 01:49:46.621 176 163 bytes 549 721 bytes 01:50:45.221
12 1:51:02.113 0:07:41.711 33 597 kbps 49 335 kbps 01:55:38.431 40 104 kbps 01:55:38.431 38 863 kbps 01:56:38.950 175 160 bytes 647 262 bytes 01:55:38.473
13 1:58:43.825 0:12:28.914 33 902 kbps 48 683 kbps 02:11:01.728 40 802 kbps 02:05:42.284 39 074 kbps 02:06:06.892 176 751 bytes 697 670 bytes 02:01:48.342
14 2:11:12.739 0:11:41.784 32 365 kbps 51 148 kbps 02:12:52.589 40 541 kbps 02:18:30.176 39 056 kbps 02:21:44.245 168 756 bytes 609 005 bytes 02:22:04.724
15 2:22:54.524 0:00:01.626 27 kbps 30 kbps 02:22:54.524 0 kbps 00:00:00.000 0 kbps 00:00:00.000 150 bytes 657 bytes 02:22:55.525

Скриншоты


_________________
Показать сообщения:    

Текущее время: Сегодня 05:21

Часовой пояс: GMT



Вы не можете начинать темы
Вы не можете отвечать на сообщения
Вы не можете редактировать свои сообщения
Вы не можете удалять свои сообщения
Вы не можете голосовать в опросах
Вы не можете прикреплять файлы к сообщениям
Вы не можете скачивать файлы