Важное объявление!
У Нас Все раздачи мультитрекерные, при нуле пиров в релизах, можете смело вставать на закачку!
 
Автор Сообщение

HUNTER

Стаж:
4 года 4 месяца
Сообщений:
56722

Репутация: 101

[+] [-]
Вне форума [Профиль] [ЛС]

Иди и смотри / Come and See
Страна: СССР
Студия: Мосфильм, Беларусьфильм
Жанр: драма, военный
Год выпуска: 1985
Продолжительность: 02:22:29
Перевод: Не требуется
Cубтитры: русские, английские
Оригинальная аудиодорожка: русский
Режиссер: Элем Климов / Elem Klimov
В ролях: Алексей Кравченко, Ольга Миронова, Любомирас Лауцявичюс, Владас Багдонас, Юри Лумисте, Виктор Лоренц, Казимир Рабецкий, Евгений Тиличеев, Александр Берда, Г. Вельц и др.
Описание: Картина основана на документальных фактах и обращается к «Хатынской повести» Адамовича. Авторами выбрано именно то место и те события, которые стали символом народной беды и страдания.
Флера — шестнадцатилетний мальчишка, откопавший среди обрывков колючей проволоки, ржавых пулеметных лент и простреленных касок карабин, и отправившийся в лес к партизанам. В начале фильма он совсем ребенок. В конце, пройдя через ужас карательной акции фашистов, становится взрослым, пугающе взрослым и даже — старым. Война исказила когда-то нежные, детские черты и превратила их в старческие морщины.
II IMDB II Сэмпл II Кинопоиск II
Тип релиза: BDRip 720p
Контейнер: MKV
Видео: AVC / 962x720 / 4:3 / 23.976fps / 15500Kbps / High@L4.1
Аудио 1: DTS / 48.0 KHz / 2ch / 1509kbps / 16bit / Rus / BD
Аудио 2: AC3 / 48.0 KHz / 6ch. / 448kbps / Rus / DVD
Формат субтитров: softsub (SRT)

MediaInfo

Общее
Уникальный идентификатор : 224134129397472561046396515711257781092 (0xA89EA9C35190EBB596C4C4B015F9A364)
Полное имя : D:\_Torrent\temp\Come.and.See.1985.BDRip.720p_by_vedigo.mkv
Формат : Matroska
Версия формата : Version 4 / Version 2
Размер файла : 17,4 Гбайт
Продолжительность : 2 ч. 22 м.
Общий поток : 17,5 Мбит/сек
Название фильма : Come.and.See.1985.BDRip.720p_by_vedigo
Дата кодирования : UTC 2016-08-13 22:53:47
Программа кодирования : mkvmerge v9.3.1 ('Mask Machine') 64bit
Библиотека кодирования : libebml v1.3.4 + libmatroska v1.4.5
Видео
Идентификатор : 1
Формат : AVC
Формат/Информация : Advanced Video Codec
Профиль формата : High@L4.1
Параметр CABAC формата : Да
Параметр ReFrames формата : 11 кадров
Идентификатор кодека : V_MPEG4/ISO/AVC
Продолжительность : 2 ч. 22 м.
Битрейт : 15,5 Мбит/сек
Ширина : 962 пикселя
Высота : 720 пикселей
Соотношение сторон : 4:3
Режим частоты кадров : Постоянный
Частота кадров : 23,976 (24000/1001) кадра/сек
Цветовое пространство : YUV
Субдискретизация насыщенности : 4:2:0
Битовая глубина : 8 бит
Тип развёртки : Прогрессивная
Бит/(Пиксели*Кадры) : 0.933
Размер потока : 15,4 Гбайт (89%)
Заголовок : Come.and.See.1985.BDRip.720p_by_vedigo
Библиотека кодирования : x264 core 148 r2705 3f5ed56
Настройки программы : cabac=1 / ref=11 / deblock=1:-3:-3 / analyse=0x3:0x133 / me=umh / subme=11 / psy=1 / psy_rd=1.00:0.10 / mixed_ref=1 / me_range=64 / chroma_me=1 / trellis=2 / 8x8dct=1 / cqm=0 / deadzone=21,11 / fast_pskip=0 / chroma_qp_offset=-3 / threads=12 / lookahead_threads=3 / sliced_threads=0 / nr=0 / decimate=1 / interlaced=0 / bluray_compat=0 / constrained_intra=0 / bframes=16 / b_pyramid=2 / b_adapt=2 / b_bias=0 / direct=3 / weightb=1 / open_gop=0 / weightp=2 / keyint=250 / keyint_min=23 / scenecut=40 / intra_refresh=0 / rc_lookahead=40 / rc=2pass / mbtree=0 / bitrate=15500 / ratetol=1.0 / qcomp=0.60 / qpmin=0 / qpmax=69 / qpstep=4 / cplxblur=20.0 / qblur=0.5 / vbv_maxrate=50000 / vbv_bufsize=62500 / nal_hrd=none / filler=0 / ip_ratio=1.40 / pb_ratio=1.30 / aq=1:0.90
Язык : Russian
Default : Да
Forced : Нет
Аудио #1
Идентификатор : 2
Формат : DTS
Формат/Информация : Digital Theater Systems
Режим : 16
Параметр Endianness формата : Big
Идентификатор кодека : A_DTS
Продолжительность : 2 ч. 22 м.
Вид битрейта : Постоянный
Битрейт : 1509 Кбит/сек
Каналы : 2 канала
Расположение каналов : Front: L R
Частота : 48,0 КГц
Частота кадров : 93,750 кадра/сек (512 spf)
Битовая глубина : 16 бит
Метод сжатия : С потерями
Размер потока : 1,50 Гбайт (9%)
Заголовок : original @ BD
Язык : Russian
Default : Да
Forced : Нет
Аудио #2
Идентификатор : 3
Формат : AC-3
Формат/Информация : Audio Coding 3
Расширение режима : CM (complete main)
Параметр Endianness формата : Big
Идентификатор кодека : A_AC3
Продолжительность : 2 ч. 22 м.
Вид битрейта : Постоянный
Битрейт : 448 Кбит/сек
Каналы : 6 каналов
Расположение каналов : Front: L C R, Side: L R, LFE
Частота : 48,0 КГц
Частота кадров : 31,250 кадров/сек (1536 spf)
Метод сжатия : С потерями
Размер потока : 457 Мбайт (3%)
Заголовок : original @ DVD
Язык : Russian
Default : Нет
Forced : Нет
Текст #1
Идентификатор : 4
Формат : UTF-8
Идентификатор кодека : S_TEXT/UTF8
Идентификатор кодека/Информация : UTF-8 Plain Text
Продолжительность : 2 ч. 20 м.
Битрейт : 26 бит/сек
Count of elements : 608
Размер потока : 27,3 Кбайт (0%)
Заголовок : Subtitle rus
Язык : Russian
Default : Нет
Forced : Нет
Текст #2
Идентификатор : 5
Формат : UTF-8
Идентификатор кодека : S_TEXT/UTF8
Идентификатор кодека/Информация : UTF-8 Plain Text
Продолжительность : 2 ч. 20 м.
Битрейт : 19 бит/сек
Count of elements : 621
Размер потока : 20,3 Кбайт (0%)
Заголовок : Subtitle eng
Язык : English
Default : Нет
Forced : Нет
Меню
00:00:00.000 : :Глава 01
00:10:04.103 : :Глава 01
00:20:01.074 : :Глава 02
00:28:29.124 : :Глава 04
00:39:50.596 : :Глава 05
00:51:40.096 : :Глава 06
01:01:47.995 : :Глава 07
01:09:36.380 : :Глава 08
01:18:59.735 : :Глава 09
01:30:03.481 : :Глава 10
01:40:52.671 : :Глава 11
01:51:02.113 : :Глава 12
01:58:43.825 : :Глава 13
02:11:12.739 : :Глава 14
02:22:54.524 : :Глава 15

Скриншоты


Сравнение с исходником





x264 info

x264 [info]: using SAR=1/1
x264 [info]: using cpu capabilities: MMX2 SSE2Fast SSSE3 SSE4.2 AVX
x264 [info]: profile High, level 4.1
x264 [info]: frame I:945 Avg QP:15.52 size:175750
x264 [info]: frame P:37849 Avg QP:17.55 size:112601
x264 [info]: frame B:166166 Avg QP:19.73 size: 73012
x264 [info]: consecutive B-frames: 1.1% 2.0% 4.4% 17.9% 13.4% 27.3% 7.9% 5.6% 4.4% 5.1% 3.2% 2.3% 2.1% 1.6% 0.8% 0.7% 0.3%
x264 [info]: mb I I16..4: 23.4% 50.9% 25.7%
x264 [info]: mb P I16..4: 5.0% 33.8% 9.9% P16..4: 16.5% 20.7% 11.2% 2.6% 0.2% skip: 0.2%
x264 [info]: mb B I16..4: 0.6% 19.9% 1.5% B16..8: 27.9% 23.3% 8.2% direct:15.5% skip: 3.1% L0:40.6% L1:32.0% BI:27.4%
x264 [info]: 8x8 transform intra:82.9% inter:52.7%
x264 [info]: direct mvs spatial:96.0% temporal:4.0%
x264 [info]: coded y,uvDC,uvAC intra: 98.4% 86.2% 64.5% inter: 84.3% 55.6% 11.6%
x264 [info]: i16 v,h,dc,p: 6% 3% 45% 45%
x264 [info]: i8 v,h,dc,ddl,ddr,vr,hd,vl,hu: 7% 9% 18% 9% 12% 10% 11% 10% 13%
x264 [info]: i4 v,h,dc,ddl,ddr,vr,hd,vl,hu: 5% 12% 10% 10% 13% 11% 12% 11% 14%
x264 [info]: i8c dc,h,v,p: 45% 27% 16% 12%
x264 [info]: Weighted P-Frames: Y:12.1% UV:3.3%
x264 [info]: ref P L0: 34.0% 12.7% 16.7% 8.6% 7.0% 5.2% 4.7% 3.0% 2.9% 2.4% 2.4% 0.3% 0.0%
x264 [info]: ref B L0: 68.2% 12.9% 6.6% 3.6% 2.7% 2.1% 1.8% 1.2% 0.7% 0.2%
x264 [info]: ref B L1: 92.7% 7.3%
x264 [info]: kb/s:15497.45

Сведения об исходнике

Disc Title: Come.And.See.1985.1080p.JPN.Blu-ray.AVC.LPCM.2.0-XOXO@HDSky
Disc Size: 39,905,328,396 bytes
Protection: AACS
BD-Java: No
BDInfo: 0.5.8
PLAYLIST REPORT:
Name: 00000.MPLS
Length: 2:22:56.150 (h:m:s.ms)
Size: 39,799,781,376 bytes
Total Bitrate: 37.13 Mbps
VIDEO:
Codec Bitrate Description
----- ------- -----------
MPEG-4 AVC Video 33679 kbps 1080p / 23.976 fps / 16:9 / High Profile 4.1
AUDIO:
Codec Language Bitrate Description
----- -------- ------- -----------
LPCM Audio Russian 1536 kbps 2.0 / 48 kHz / 1536 kbps / 16-bit
SUBTITLES:
Codec Language Bitrate Description
----- -------- ------- -----------
Presentation Graphics Japanese 23.973 kbps
Presentation Graphics Chinese 11.737 kbps
Presentation Graphics Chinese 12.014 kbps
Presentation Graphics English 12.096 kbps
FILES:
Name Time In Length Size Total Bitrate
---- ------- ------ ---- -------------
00000.M2TS 0:00:00.000 2:22:28.581 39,787,468,800 37,234
00008.M2TS 2:22:28.581 0:00:07.048 1,751,040 1,987
00001.M2TS 2:22:35.630 0:00:18.893 10,162,176 4,303
00002.M2TS 2:22:54.524 0:00:01.626 399,360 1,964

_________________
Показать сообщения:    

Текущее время: Сегодня 15:29

Часовой пояс: GMT



Вы не можете начинать темы
Вы не можете отвечать на сообщения
Вы не можете редактировать свои сообщения
Вы не можете удалять свои сообщения
Вы не можете голосовать в опросах
Вы не можете прикреплять файлы к сообщениям
Вы не можете скачивать файлы