Важное объявление!
У Нас Все раздачи мультитрекерные, при нуле пиров в релизах, можете смело вставать на закачку!
 
Автор Сообщение

HUNTER

Стаж:
4 года 4 месяца
Сообщений:
56765

Репутация: 101

[+] [-]
Вне форума [Профиль] [ЛС]

Идентификация / Identity
Страна: США
Студия: Columbia Pictures Corporation, Konrad Pictures
Жанр: Триллер, детектив
Год выпуска: 2003
Продолжительность: 01:30:02
Перевод 1: Профессиональный (двухголосый закадровый) Видеосервис
Перевод 2: Профессиональный (многоголосый закадровый) R5/BD CEE
Перевод 3: Профессиональный (многоголосый закадровый) ОРТ
Перевод 4: Профессиональный (двухголосый закадровый)
Перевод 5: Авторский (одноголосый закадровый) А. Гаврилов
Перевод 6: Авторский (одноголосый закадровый) Ю. Живов
Перевод 7: Одноголосый закадровый Д. Есарев
Cубтитры: Русские, Английские
Оригинальная аудиодорожка: Английский
Режиссер: Джеймс Мэнголд / James Mangold
В ролях: Джон Кьюсак, Аманда Пит, Рэй Лиотта, Джон Хоукс, Альфред Молина, Клеа Дюваль, Джон К. МакГинли, Уильям Ли Скотт, Джейк Бьюзи, Прюитт Тэйлор Винс, Ребекка Де Морнэй, Кармен Ардженциано, Маршалл Белл, Лейла Кензл, Мэтт Летчер, Брэт Лоэр, Холмс Осборн, Фредерик Коффин, Джо Харт, Майкл Хирш, Теренс Берни Хайнс, Стюарт М. Бессер
Описание: Сильный грозовой ливень полностью затопил дороги. 10 совершенно разных людей по вине обстоятельств или, спасаясь от непогоды, собираются в придорожном мотеле, одиноко стоящем посреди пустынной местности. Они не знакомы друг с другом и между ними нет ничего общего. Среди них есть полицейский, перевозивший заключенного, водитель лимузина, высокомерная актриса и проститутка. Кажется, что между ними нет ничего общего, но их объединяет одна страшная участь. Они это сразу понимаю, после того как один за другими невольные постояльцы мотеля начинают погибать от рук неизвестного убийцы. Вокруг ни души, а это означает, что убийца среди них. Не имея возможности вызвать помощь или сбежать, постояльцы могут только ждать следующей жертвы и теряться в догадках о мотивах и личности убийцы.-Рейтинг
-Сэмпл
Тип релиза: BDRip 1080p
Контейнер: MKV
Видео: 1918x796 (2,40:1), 23.976 fps, x264, ~16500 kbps, Encode by Toshik®
Аудио 1: Russian: 48 kHz, DTS, 3/2 (L,C,R,l,r) + LFE ch, ~1509 kbps | Двухголосый закадровый, Видеосервис
Аудио 2: Russian: 48 kHz, AC3, 3/2 (L,C,R,l,r) + LFE ch, ~640 kbps | Многоголосый закадровый, R5/BD CEE
Аудио 3: Russian: 48 kHz, AC3, 2/0 (L,R) ch, ~192 kbps | Многоголосый закадровый, ОРТ
Аудио 4: Russian: 48 kHz, AC3, 3/2 (L,C,R,l,r) + LFE ch, ~384 kbps | Двухголосый закадровый
Аудио 5: Russian: 48 kHz, DTS, 3/2 (L,C,R,l,r) + LFE ch, ~1509 kbps | Одноголосый закадровый, А. Гаврилов
Аудио 6: Russian: 48 kHz, DTS, 3/2 (L,C,R,l,r) + LFE ch, ~1509 kbps | Одноголосый закадровый, Ю. Живов
Аудио 7: Russian: 48 kHz, DTS, 3/2 (L,C,R,l,r) + LFE ch, ~1509 kbps | Одноголосый закадровый, Д. Есарев
Аудио 8: Ukrainian: 48 kHz, AC3, 2/0 (L,R) ch, ~192 kbps | Многоголосый закадровый, 1+1
Аудио 9: English: 48 kHz, AC3, 3/2 (L,C,R,l,r) + LFE ch, ~1509 kbps
Субтитры: Русские, Английские
Формат субтитров: softsub (SRT)

Дополнительно

Дорожки №1, 6, 7 и 8 получены наложением выделенного\чистого голоса на центр декодированного оригинала.
Перевод Д. Есарева доступен благодаря Pr0peLLer.
Работа со звуком Прагматик.
Отличия от [url=viewtopic.php?t=5136114]этой[/url] раздачи:
Добавлена DTS дорога А. Гаврилова, все остальные дороги отредактированы.
Русские субтитры синхронизированы.

MediaInfo

Общее
Unique ID : 241552524379063866847068344470845598144 (0xB5B952F0A4343345B3B37272273929C0)
Complete name : E:\video_rutracker\Identity.2003.1080p.BDRip.7xRus.Eng.x264.mkv
Format : Matroska
Format version : Version 2
File size : 16,0 Гбайт
Duration : 1 ч. 30 м.
Overall bit rate : 25,5 Мбит/сек
Movie name : Identity.2003.1080p.BDRip.igrok2012
Encoded date : UTC 2016-04-04 11:33:14
Writing application : mkvmerge v8.3.0 ('Over the Horizon') 64bit
Writing library : libebml v1.3.1 + libmatroska v1.4.2
Attachements : cover.jpg
Видео
ID : 1
Format : AVC
Format/Info : Advanced Video Codec
Format profile : High@L4.1
Format settings, CABAC : Да
Format settings, ReFrames : 5 кадров
Codec ID : V_MPEG4/ISO/AVC
Duration : 1 ч. 30 м.
Bit rate : 16,0 Мбит/сек
Width : 1918 пикселей
Height : 796 пикселей
Display aspect ratio : 2,40:1
Frame rate mode : Постоянный
Frame rate : 23,976 (24000/1001) кадра/сек
Color space : YUV
Chroma subsampling : 4:2:0
Bit depth : 8 бит
Scan type : Прогрессивная
Bits/(Pixel*Frame) : 0.438
Stream size : 10,1 Гбайт (63%)
Title : Encode by Toshik®
Writing library : x264 core 148 r2638+53 bb29004 t_mod_Custom [8-bit@all X86_64]
Encoding settings : cabac=1 / ref=5 / deblock=1:-3:-3 / analyse=0x3:0x133 / me=esa / subme=11 / psy=1 / fade_compensate=0.00 / psy_rd=1.03:0.00 / mixed_ref=1 / me_range=32 / chroma_me=1 / trellis=2 / 8x8dct=1 / cqm=0 / deadzone=21,11 / fast_pskip=0 / chroma_qp_offset=-2 / threads=12 / lookahead_threads=3 / sliced_threads=0 / nr=0 / decimate=1 / interlaced=0 / bluray_compat=0 / constrained_intra=0 / fgo=0 / bframes=10 / b_pyramid=2 / b_adapt=2 / b_bias=0 / direct=3 / weightb=1 / open_gop=0 / weightp=2 / keyint=240 / keyint_min=23 / scenecut=40 / intra_refresh=0 / rc=crf / mbtree=0 / crf=16.5000 / qcomp=0.65 / qpmin=0:0:0 / qpmax=69:69:69 / qpstep=4 / ip_ratio=1.35 / pb_ratio=1.25 / aq=1:0.85 / aq-sensitivity=10.00 / aq-factor=1.00:1.00:1.00 / aq2=0 / aq3=0
Language : English
Default : Да
Forced : Нет
Аудио #1
ID : 2
Format : DTS
Format/Info : Digital Theater Systems
Mode : 16
Format settings, Endianness : Big
Codec ID : A_DTS
Duration : 1 ч. 30 м.
Bit rate mode : Постоянный
Bit rate : 1509 Кбит/сек
Channel(s) : 6 каналов
Channel positions : Front: L C R, Side: L R, LFE
Sampling rate : 48,0 КГц
Frame rate : 93,750 кадра/сек (512 spf)
Bit depth : 16 бит
Compression mode : С потерями
Stream size : 972 Мбайт (6%)
Title : Двухголосый закадровый, Видеосервис
Language : Russian
Default : Да
Forced : Нет
Аудио #2
ID : 3
Format : AC-3
Format/Info : Audio Coding 3
Mode extension : CM (complete main)
Format settings, Endianness : Big
Codec ID : A_AC3
Duration : 1 ч. 30 м.
Bit rate mode : Постоянный
Bit rate : 640 Кбит/сек
Channel(s) : 6 каналов
Channel positions : Front: L C R, Side: L R, LFE
Sampling rate : 48,0 КГц
Frame rate : 31,250 кадров/сек (1536 spf)
Compression mode : С потерями
Stream size : 412 Мбайт (3%)
Title : Многоголосый закадровый, BD CEE (R5)
Language : Russian
Default : Нет
Forced : Нет
Аудио #3
ID : 4
Format : AC-3
Format/Info : Audio Coding 3
Mode extension : CM (complete main)
Format settings, Endianness : Big
Codec ID : A_AC3
Duration : 1 ч. 30 м.
Bit rate mode : Постоянный
Bit rate : 192 Кбит/сек
Channel(s) : 2 канала
Channel positions : Front: L R
Sampling rate : 48,0 КГц
Frame rate : 31,250 кадров/сек (1536 spf)
Compression mode : С потерями
Stream size : 124 Мбайт (1%)
Title : Многоголосый закадровый, ОРТ
Language : Russian
Default : Нет
Forced : Нет
Аудио #4
ID : 5
Format : AC-3
Format/Info : Audio Coding 3
Mode extension : CM (complete main)
Format settings, Endianness : Big
Codec ID : A_AC3
Duration : 1 ч. 30 м.
Bit rate mode : Постоянный
Bit rate : 384 Кбит/сек
Channel(s) : 6 каналов
Channel positions : Front: L C R, Side: L R, LFE
Sampling rate : 48,0 КГц
Frame rate : 31,250 кадров/сек (1536 spf)
Compression mode : С потерями
Stream size : 247 Мбайт (2%)
Title : Двухголосый закадровый
Language : Russian
Default : Нет
Forced : Нет
Аудио #5
ID : 6
Format : DTS
Format/Info : Digital Theater Systems
Mode : 16
Format settings, Endianness : Big
Codec ID : A_DTS
Duration : 1 ч. 30 м.
Bit rate mode : Постоянный
Bit rate : 1509 Кбит/сек
Channel(s) : 6 каналов
Channel positions : Front: L C R, Side: L R, LFE
Sampling rate : 48,0 КГц
Frame rate : 93,750 кадра/сек (512 spf)
Bit depth : 16 бит
Compression mode : С потерями
Stream size : 972 Мбайт (6%)
Title : Одноголосый закадровый, А. Гаврилов
Language : Russian
Default : Нет
Forced : Нет
Аудио #6
ID : 7
Format : DTS
Format/Info : Digital Theater Systems
Mode : 16
Format settings, Endianness : Big
Codec ID : A_DTS
Duration : 1 ч. 30 м.
Bit rate mode : Постоянный
Bit rate : 1509 Кбит/сек
Channel(s) : 6 каналов
Channel positions : Front: L C R, Side: L R, LFE
Sampling rate : 48,0 КГц
Frame rate : 93,750 кадра/сек (512 spf)
Bit depth : 16 бит
Compression mode : С потерями
Stream size : 972 Мбайт (6%)
Title : Одноголосый закадровый, Ю. Живов
Language : Russian
Default : Нет
Forced : Нет
Аудио #7
ID : 8
Format : DTS
Format/Info : Digital Theater Systems
Mode : 16
Format settings, Endianness : Big
Codec ID : A_DTS
Duration : 1 ч. 30 м.
Bit rate mode : Постоянный
Bit rate : 1509 Кбит/сек
Channel(s) : 6 каналов
Channel positions : Front: L C R, Side: L R, LFE
Sampling rate : 48,0 КГц
Frame rate : 93,750 кадра/сек (512 spf)
Bit depth : 16 бит
Compression mode : С потерями
Stream size : 972 Мбайт (6%)
Title : Одноголосый закадровый, Д. Есарев
Language : Russian
Default : Нет
Forced : Нет
Аудио #8
ID : 9
Format : AC-3
Format/Info : Audio Coding 3
Mode extension : CM (complete main)
Format settings, Endianness : Big
Codec ID : A_AC3
Duration : 1 ч. 30 м.
Bit rate mode : Постоянный
Bit rate : 192 Кбит/сек
Channel(s) : 2 канала
Channel positions : Front: L R
Sampling rate : 48,0 КГц
Frame rate : 31,250 кадров/сек (1536 spf)
Compression mode : С потерями
Stream size : 124 Мбайт (1%)
Title : Многоголосый закадровый, 1+1
Language : Ukrainian
Default : Нет
Forced : Нет
Аудио #9
ID : 10
Format : DTS
Format/Info : Digital Theater Systems
Mode : 16
Format settings, Endianness : Big
Codec ID : A_DTS
Duration : 1 ч. 30 м.
Bit rate mode : Постоянный
Bit rate : 1509 Кбит/сек
Channel(s) : 6 каналов
Channel positions : Front: L C R, Side: L R, LFE
Sampling rate : 48,0 КГц
Frame rate : 93,750 кадра/сек (512 spf)
Bit depth : 16 бит
Compression mode : С потерями
Stream size : 972 Мбайт (6%)
Language : English
Default : Нет
Forced : Нет
Текст #1
ID : 11
Format : UTF-8
Codec ID : S_TEXT/UTF8
Codec ID/Info : UTF-8 Plain Text
Language : Russian
Default : Нет
Forced : Нет
Текст #2
ID : 12
Format : UTF-8
Codec ID : S_TEXT/UTF8
Codec ID/Info : UTF-8 Plain Text
Language : English
Default : Нет
Forced : Нет
Меню
00:00:00.000 : en:Start
00:04:36.567 : en:"We had an accident"
00:12:51.979 : en:All roads lead to Paris
00:17:15.617 : en:Caroline Suzanne, actress
00:25:23.730 : en:Ginny & Lou, Newlyweds
00:33:05.733 : en:Officer Rhodes
00:37:57.274 : en:A stitch in time
00:40:51.782 : en:Robert Maine, convicted killer
00:44:36.423 : en:Canceled TV star
00:50:37.909 : en:"We can't find the body"
00:55:28.700 : en:"I'm not pregnant
01:01:29.310 : en:Marriage annulled
01:07:18.242 : en:Caught
01:09:35.254 : en:Larry the guard
01:15:05.083 : en:Awake
01:19:23.633 : en:A burned out ex-cop

Скриншоты



_________________
Показать сообщения:    

Текущее время: Сегодня 19:27

Часовой пояс: GMT



Вы не можете начинать темы
Вы не можете отвечать на сообщения
Вы не можете редактировать свои сообщения
Вы не можете удалять свои сообщения
Вы не можете голосовать в опросах
Вы не можете прикреплять файлы к сообщениям
Вы не можете скачивать файлы