Важное объявление!
У Нас Все раздачи мультитрекерные, при нуле пиров в релизах, можете смело вставать на закачку!
 
Автор Сообщение

HUNTER

Стаж:
4 года 4 месяца
Сообщений:
56790

Репутация: 101

[+] [-]
Вне форума [Профиль] [ЛС]

Игры разума / Brain Games
Дата/Год выпуска: 2014
Страна: США
Производство: National Geographic
Жанр: Документальный, научно-популярный, исследования
Продолжительность: 10 х ~ 00:22:00
Перевод: Одноголосый закадровый
Русские субтитры: нет
Оригинальная аудиодорожка: нет
Режиссер: Трей Нельсон / Trey Nelson
В ролях: Шара Эшли Зейгер, Билл Хоббс, Джерри Делла Салла, Дэвид Копперфилд, Нил Патрик Харрис
Описание: Программа "Игры разума" приглашает вас в путешествие в мир интерактивных игр и тестов, которые помогут вам понять, как устроен ваш мозг. По-настоящему умопомрачительные эксперименты протестируют то, как ваш мозг воспринимает окружающий мир. Исследуя внимание, страх, убеждение и принятие решений, "Игры разума" заставляет вас задуматься о собственном мозге. Ведь именно он делает вас…вами...

качество: SATRip
формат: AVI
Видео: MPEG-4 Visual, DivX 5, 1600 Кбит/сек, 25,000 кадров/сек, 720 х 400 (16:9), 0.222 бит/пикс
Аудио: MP3, 48,0 КГц, 128 Кбит/сек, 2 канала

Список выпусков/серий

1 серия. Битва возрастов
Хотите узнать, как работает ваш мозг? Специалисты в области когнитивной науки, нейрофизиологии и психологии объясняют, как мозг воспринимает мир.
2 серия. Живой цвет
Думаете, яблоко красное, а лист зеленый? Вы удивитесь, когда мы откроем шокирующую правду о том, что цвет - это лишь заблуждение вашего мозга.
3 серия. Что происходит?
Вы узнаете, что в мозгу есть встроенное умение ориентироваться. Узнаете как многократно увеличить Вашу пространственную осведомленность.
4 серия. Доверься мне
Что такое "доверие"? Серия забавных интерактивных научных игр показывает, как обрести доверие в нашем ненадежном мире.
5 серия. Законы привлекательности
С помощью интерактивных игр мы узнаем о законах привлекательности и о том, как наш мозг решает, что для него притягательно, а что нет.
6 серия. Стресс-тест
Узнайте о том, как мозг справляется со стрессом и как стресс влияет на него. От пробок до плачущих детей - может ли стресс быть полезным?
7 серия. Главное - победить
Каждый день вы соревнуетесь - с самим собой или с другими. Узнайте, почему ваш мозг заставляет вас хоетть быть лучше других.
8 серия. Переучи свой мозг
Модернизировать электронику на которую вы полагаетесь на каждый день это легко сделать, но единственная модернизация мозга это гимнастика для ума.
9 серия. Познай своё тело
Эта серия посвящена вашему мозгу и телу. Вы увидите, что ваше тело зачастую находится во власти мозга, а мозг поддается на уловки тела. Вы узнаете о секретных связях мозга и тела.
10 серия. Следуй за лидером
Всем хочется думать, что они уникальны, но приятно это вам или нет, во многом ваше поведение зависит от подражания другим.

MediaInfo

ОбщееПолное имя : E:\torrent\Игры разума. Brain Games (2014) 3 сезон\10. Следуй за лидером.aviФормат : AVIФормат/Информация : Audio Video InterleaveРазмер файла : 273 МбайтПродолжительность : 21 м.Общий поток : 1745 Кбит/сек
ВидеоИдентификатор : 0Формат : MPEG-4 VisualПараметр BVOP формата : ДаПараметр QPel формата : НетПараметр GMC формата : Без точки переходаПараметр матрицы формата : Default (H.263)Идентификатор кодека : DX50Идентификатор кодека/Подсказка : DivX 5Продолжительность : 21 м.Битрейт : 1600 Кбит/секШирина : 720 пикселейВысота : 400 пикселейСоотношение сторон : 16:9Частота кадров : 25,000 кадров/секЦветовое пространство : YUVСубдискретизация насыщенности : 4:2:0Битовая глубина : 8 битТип развёртки : ПрогрессивнаяМетод сжатия : С потерямиБит/(Пиксели*Кадры) : 0.222Размер потока : 250 Мбайт (92%)Библиотека кодирования : Intel(R) MPEG-4 encoder based on Intel(R) IPP 6.1 build 137.20[6.1.137.763]
АудиоИдентификатор : 1Формат : MPEG AudioВерсия формата : Version 1Профиль формата : Layer 3Режим : Joint stereoРасширение режима : MS StereoИдентификатор кодека : 55Идентификатор кодека/Подсказка : MP3Продолжительность : 21 м.Вид битрейта : ПостоянныйБитрейт : 128 Кбит/секКаналы : 2 каналаЧастота : 48,0 КГцМетод сжатия : С потерямиРазмер потока : 20,0 Мбайт (7%)Выравнивание : Соединение по промежуткамПродолжительность промежутка : 24 мс. (0,60 видеокадр)Библиотека кодирования : LAME3.98.2

Скриншоты


_________________
Показать сообщения:    

Текущее время: Сегодня 16:04

Часовой пояс: GMT



Вы не можете начинать темы
Вы не можете отвечать на сообщения
Вы не можете редактировать свои сообщения
Вы не можете удалять свои сообщения
Вы не можете голосовать в опросах
Вы не можете прикреплять файлы к сообщениям
Вы не можете скачивать файлы