Важное объявление!
У Нас Все раздачи мультитрекерные, при нуле пиров в релизах, можете смело вставать на закачку!
 
Автор Сообщение

HUNTER

Стаж:
4 года 4 месяца
Сообщений:
56842

Репутация: 101

[+] [-]
Вне форума [Профиль] [ЛС]

Игры в подкидного
Год выпуска: 2001
Выпущено: Россия
Жанр: Криминал
Продолжительность: 00:41:58
Перевод: оригинал
Субтитры: нет-Режиссер: Александр Клименко-В ролях: Владимир Симонов, Виктор Проскурин, Сергей Никоненко, Светлана Брагарник, Юрий Назаров, Кахи Кавсадзе, Екатерина Климова, Татьяна Лесневская-Описание:Недавнее прошлое - с начала перестройки и почти до сегодняшних дней. Время смуты, период накопления капитала, разборок, переоценки всех старых ценностей, приобретений новых... Герои фильма в середине восьмидесятых вместе со всей страной начинают новую жизнь - стремительно прорываясь через все испытания, которые приготовила эпоха. Они не ущемлены излишними моральными принципами, но с каждым своим шагом в погоне за бешеными деньгами они берут на душу грех и осознают это. Возможно, поэтому они остаются думающими и чувствующими людьми. Эти четырнадцать серий - телероман о дне сегодняшнем. Его герои - те энергичные, талантливые, неуемные люди, которые и делали современность. Сегодня многие, кому в то многообещающее время не удалось прорваться, задаются вопросом: как это удалось другим? Вот так, шаг за шагом, как показано в фильме: наезды, киллеры, мафия, рэкет, продажные чиновники, финансовые пирамиды, смерть друзей, похищение детей - и что в конце, что сегодня? Настало время расплатиться и покаяться. И именно тот, кто способен на это, впишется и в новейшее время. Только начнет уже иные игры, по другим правилам...
-Качество: SATRip
Формат: AVI
Видео кодек: XviD
Аудио кодек: MP3
Видео: 640x480 (4:3), 25 fps, XviD ~1393kbps avg, 0.181 bit/pixel
Аудио: 48 kHz, MPEG Layer 3,MS Stereo, 2 ch, ~128.00 kbps avg

Информация МедиаИнфо

Общее
Полное имя : F:\ФИЛЬМЫ ТОРРЕНТА\Igry.v.podkidnogo.(1.seriya.iz.14).2001.XviD.SATRip.avi
Формат : AVI
Формат/Информация : Audio Video Interleave
Размер файла : 626 Мбайт
Продолжительность : 57 м.
Общий поток : 1530 Кбит/сек
Программа кодирования : VirtualDubMod 1.5.10.2 (build 2540/release)
Библиотека кодирования : VirtualDub build 32507/release
Видео
Идентификатор : 0
Формат : MPEG-4 Visual
Профиль формата : Advanced Simple@L5
Параметр BVOP формата : 2
Параметр QPel формата : Нет
Параметр GMC формата : Без точки перехода
Параметр матрицы формата : Default (MPEG)
Режим смешивания : Сжатый битовый поток
Идентификатор кодека : XVID
Идентификатор кодека/Подсказка : XviD
Продолжительность : 57 м.
Битрейт : 1393 Кбит/сек
Ширина : 640 пикселей
Высота : 480 пикселей
Соотношение сторон : 4:3
Частота кадров : 25,000 кадров/сек
Цветовое пространство : YUV
Субдискретизация насыщенности : 4:2:0
Битовая глубина : 8 бит
Тип развёртки : Прогрессивная
Метод сжатия : С потерями
Бит/(Пиксели*Кадры) : 0.181
Размер потока : 570 Мбайт (91%)
Библиотека кодирования : XviD 64
Аудио
Идентификатор : 1
Формат : MPEG Audio
Версия формата : Version 1
Профиль формата : Layer 3
Режим : Joint stereo
Расширение режима : MS Stereo
Идентификатор кодека : 55
Идентификатор кодека/Подсказка : MP3
Продолжительность : 57 м.
Вид битрейта : Постоянный
Битрейт : 128 Кбит/сек
Каналы : 2 канала
Частота : 48,0 КГц
Метод сжатия : С потерями
Задержка видео : 984 мс.
Размер потока : 52,4 Мбайт (8%)
Выравнивание : Разделение по промежуткам
Продолжительность промежутка : 40 мс. (1,00 видеокадр)
Время предзагрузки промежутка : 504 мс.
Библиотека кодирования : LAME3.90.3

Скриншоты


_________________
Показать сообщения:    

Текущее время: Сегодня 14:33

Часовой пояс: GMT



Вы не можете начинать темы
Вы не можете отвечать на сообщения
Вы не можете редактировать свои сообщения
Вы не можете удалять свои сообщения
Вы не можете голосовать в опросах
Вы не можете прикреплять файлы к сообщениям
Вы не можете скачивать файлы