Важное объявление!
У Нас Все раздачи мультитрекерные, при нуле пиров в релизах, можете смело вставать на закачку!
 
Автор Сообщение

HUNTER

Стаж:
4 года 4 месяца
Сообщений:
56755

Репутация: 101

[+] [-]
Вне форума [Профиль] [ЛС]

Игровое гиперпространство Нептунии / Choujigen Game Neptune The Animation / Hyperdimension Neptunia - The Animation
Страна: Япония
Год выпуска: 2014 г.
Жанр: приключения
Тип: Special
Продолжительность: 24 мин.
Режиссер: Мукай Масахиро
Студия: David Production
Описание: Бескрайний мир Игромании поделен на четыре державы, каждой из которых управляет могущественная богиня. До недавнего времени они вели отчаянную борьбу за Шару – долю популярности на игровом рынке, но стараниями хозяйки Планептуна, богини Пурпурное Сердце, был заключен мир. Лидеры воюющих сторон договорились не отбирать Шару друг у друга, а множить ее общими усилиями, повышая качество услуг и завоевывая сердца подданных. А теперь можно и отдохнуть во дворце Нептунии, которая в своем мирском обличии – веселая и компанейская девчонка, что всегда рада гостям!
Качество: BDRip
Тип релиза: Без хардсаба
Формат видео: MP4
Наличие линковки: Нет
Релиз/Автор рипа: Ohys-Raws
Видео: H264, 8 bits, 1280x720, 1048 kbps, 23.976fps
Аудио: AAC, 2ch, 124kbps, 48kHz Язык Японский
Субтитры: ass, отдельным файлом Язык субтитров русский ; Перевод: ItseKsee ; Редактор: Endil
Подробные тех. данные
Format : MPEG-4Format profile : Base MediaCodec ID : isomFile size : 199 MiBDuration : 23mn 42sOverall bit rate mode : VariableOverall bit rate : 1 175 Kbps
VideoID : 1Format : AVCFormat/Info : Advanced Video CodecFormat profile : High@L4.1Format settings, CABAC : YesFormat settings, ReFrames : 9 framesCodec ID : avc1Codec ID/Info : Advanced Video CodingDuration : 23mn 42sBit rate : 1 047 KbpsMaximum bit rate : 7 943 KbpsWidth : 1 280 pixelsHeight : 720 pixelsDisplay aspect ratio : 16:9Frame rate mode : ConstantFrame rate : 23.976 fpsColor space : YUVChroma subsampling : 4:2:0Bit depth : 8 bitsScan type : ProgressiveBits/(Pixel*Frame) : 0.047Stream size : 178 MiB (89%)Writing library : x264 core 133 r2334 a3ac64bEncoding settings : cabac=1 / ref=9 / deblock=1:0:0 / analyse=0x3:0x133 / me=umh / subme=10 / psy=1 / psy_rd=0.90:0.00 / mixed_ref=1 / me_range=32 / chroma_me=1 / trellis=2 / 8x8dct=1 / cqm=0 / deadzone=21,11 / fast_pskip=0 / chroma_qp_offset=-3 / threads=18 / lookahead_threads=4 / sliced_threads=0 / nr=0 / decimate=0 / interlaced=0 / bluray_compat=0 / constrained_intra=0 / bframes=16 / b_pyramid=2 / b_adapt=2 / b_bias=0 / direct=3 / weightb=1 / open_gop=0 / weightp=1 / keyint=300 / keyint_min=1 / scenecut=40 / intra_refresh=0 / rc=2pass / mbtree=0 / bitrate=1047 / ratetol=1.0 / qcomp=0.80 / qpmin=0 / qpmax=48 / qpstep=12 / cplxblur=20.0 / qblur=0.5 / ip_ratio=1.40 / pb_ratio=1.30 / aq=2:0.90Encoded date : UTC 2014-03-25 12:03:02Tagged date : UTC 2014-03-25 12:36:40
AudioID : 2Format : AACFormat/Info : Advanced Audio CodecFormat profile : LCCodec ID : 40Duration : 23mn 42sBit rate mode : VariableBit rate : 124 KbpsMaximum bit rate : 136 KbpsChannel count : 2 channelsChannel positions : Front: L RSampling rate : 48.0 KHzCompression mode : LossyDelay relative to video : 83msStream size : 21.1 MiB (11%)
Список эпизодов
1. Yakusoku no True End
Скриншоты

_________________
Показать сообщения:    

Текущее время: Сегодня 15:00

Часовой пояс: GMT



Вы не можете начинать темы
Вы не можете отвечать на сообщения
Вы не можете редактировать свои сообщения
Вы не можете удалять свои сообщения
Вы не можете голосовать в опросах
Вы не можете прикреплять файлы к сообщениям
Вы не можете скачивать файлы