Важное объявление!
У Нас Все раздачи мультитрекерные, при нуле пиров в релизах, можете смело вставать на закачку!
 
Автор Сообщение

HUNTER

Стаж:
4 года 4 месяца
Сообщений:
56733

Репутация: 101

[+] [-]
Вне форума [Профиль] [ЛС]

Игра смерти / Game of Death-Год выпуска:2010
Страна: USA
Жанр:боевик, триллер, приключения
Продолжительность:1:33:53
Перевод: Профессиональный многоголосый закадровый [Лицензия]-В ролях: Роберт Дави, Зои Белл, Уэсли Снайпс, Эрни Хадсон, Гэри Дэниелс, Онжаню Эллис, Саймон Ри, Ху Сунг Пак, Эфка Кваракиюс, Рон Балики
Режиссёр: Джорджо Серафини-Описание: Последний фильм Уэсли Снайпса перед тюремным заключением, которого актеру так и не удалось избежать, порадует поклонников стремительных боевиков, где основное внимание сосредоточено на безостановочном экшене, а не на мудреных высокопарных диалогах. «Игра смерти» изобилует зрелищными перестрелками, отлично поставленными рукопашными схватками и динамичными перемещениями.
Сыр-бор закрутится вокруг агента ЦРУ, которому предстоит внедриться в преступную группировку, приторговывающую оружием. Маркус Джон должен стать мнимым телохранителем главной шишки и спустить курок у виска клиента, как только поступит соответствующее распоряжение от начальства. Однако центр молчит, а на охраняемый подставным бодигардом объект начинается настоящая охота. Пока ответственный Маркус пытается разобраться в происходящем, ему приходится доблестно исполнять свои должностные обязанности, охраняя авторитетного мафиози от града пуль.-Качество: WEB-DL (SHQ)
Формат: MPEG-4
Видео кодек: AVC
Аудио кодек: AAC
Видео: MPEG4 Video (H264) 720x400 25fps 1653kbps
Аудио: AAC 48000Hz mono 82kbps-Семпл: http://sendfile.su/897572

MediaInfo

Format : MPEG-4
Format profile : Base Media
Codec ID : isom
File size : 1.14 GiB
Duration : 1h 33mn
Overall bit rate mode : Variable
Overall bit rate : 1 740 Kbps
Video
ID : 1
Format : AVC
Format/Info : Advanced Video Codec
Format profile : [url=mailto:Main@L3.0]Main@L3.0[/url]
Format settings, CABAC : Yes
Format settings, ReFrames : 4 frames
Codec ID : avc1
Codec ID/Info : Advanced Video Coding
Duration : 1h 33mn
Bit rate : 1 654 Kbps
Width : 720 pixels
Height : 400 pixels
Display aspect ratio : 16:9
Frame rate mode : Constant
Frame rate : 25.000 fps
Color space : YUV
Chroma subsampling : 4:2:0
Bit depth : 8 bits
Scan type : Progressive
Bits/(Pixel*Frame) : 0.230
Stream size : 1.08 GiB (95%)
Language : Russian
Tagged date : UTC 2012-12-24 22:47:22
Audio
ID : 2
Format : AAC
Format/Info : Advanced Audio Codec
Format profile : LC
Codec ID : 40
Duration : 1h 33mn
Source duration : 1h 33mn
Bit rate mode : Variable
Bit rate : 82.7 Kbps
Maximum bit rate : 128 Kbps
Channel count : 2 channels
Original Channel count : 1 channel
Channel positions : Front: C
Sampling rate : 48.0 KHz
Compression mode : Lossy
Stream size : 55.5 MiB (5%)
Source stream size : 55.5 MiB (5%)
Language : Russian
Tagged date : UTC 2012-12-24 22:47:22
mdhd_Duration : 5634502

Скриншоты


_________________
Показать сообщения:    

Текущее время: Сегодня 04:19

Часовой пояс: GMT



Вы не можете начинать темы
Вы не можете отвечать на сообщения
Вы не можете редактировать свои сообщения
Вы не можете удалять свои сообщения
Вы не можете голосовать в опросах
Вы не можете прикреплять файлы к сообщениям
Вы не можете скачивать файлы