Важное объявление!
У Нас Все раздачи мультитрекерные, при нуле пиров в релизах, можете смело вставать на закачку!
 
Автор Сообщение

HUNTER

Стаж:
4 года 4 месяца
Сообщений:
56755

Репутация: 101

[+] [-]
Вне форума [Профиль] [ЛС]

Игра престолов / Game of Thrones-
Год выпуска: 2012
Страна: США
Жанр: фэнтези, драма, приключения
Кол-во серий: 1-10 из 10
Продолжительность: 55 мин--Перевод: Профессиональный (многоголосый, закадровый) от LostFilm
Субтитры: нет--В ролях: Николай Костер-Вальдау, Лина Хиди, Айэйн Глен, Питер Динклэйдж, Эмилия Кларк, Мишель Фэйрли, Эйден Гиллен, Кит Харингтон, Марк Эдди и другие...
Режиссёр: Тим Ван Паттен, Алан Тейлор, Брайан Кирк--Описание: В Вестеросе наступила осень — предвестник долгой зимы, когда Белые ходоки пробудятся ото сна. Но Стена и её защитники позабыты: три короля претендуют на Железный трон и два верховных лорда провозгласили себя королями над своими землями. Никто из них не желает заключить союзы, и каждый считает свое право на трон священным. И воцарился над миром кровавый хаос войны. И началась великая битва, в которой наградою победителю станет Железный Трон Семи Королевств.
Страшные настали времена — времена отваги и отмщения, интриги и магии. Ныне дева повстречает безумца, а брат занесет меч на брата. Ныне убитые восстанут — и пойдут тропою Тьмы. Ныне вонзится холодная сталь в холодные сердца.
Ныне грядет предначертанная пророчеством битва Королей…
--Качество: HDTVRip | Формат: MP4 | Видео кодек: H.264 | Аудио кодек: AAC
Видео: 800x448, 850 Kbps, 23.976 fps
Аудио: 48.0 KHz, 2 ch, 128 Kbps
-

Список серий

01 - The North Remembers / Север помнит
02 - The Night Lands / Ночные земли
03 - What Is Dead May Never Die / То, что мертво, умереть не может
04 - Garden of Bones / Сад костей
05 - The Ghost of Harrenhal / Призрак Харренхола
06 - The Old Gods and the New / Боги старые и новые
07 - A Man Without Honor / Человек без чести
08 - The Prince of Winterfell / Принц Винтерфелла
09 - Blackwater / Черноводная
10 - Valar Morghulis / Валар Моргулис
-

Mediainfo

Код: copyText_writeLink('this.parentNode.parentNode.nextSibling.nextSibling'); D:\Downloads\Game of Thrones 2\Game.of.Thrones.S02E01.800x448.x.264.AAC.mp4
General
Complete name : D:\Downloads\Game of Thrones 2\Game.of.Thrones.S02E01.800x448.x.264.AAC.mp4
Format : MPEG-4
Format profile : Base Media
Codec ID : isom
File size : 388 MiB
Duration : 55mn 10s
Overall bit rate mode : Variable
Overall bit rate : 983 Kbps
Encoded date : UTC 2012-07-07 10:15:09
Tagged date : UTC 2012-07-07 10:15:09
Video #1
ID : 1
Format : AVC
Format/Info : Advanced Video Codec
Format profile : [url=mailto:Main@L3.1]Main@L3.1[/url]
Format settings, CABAC : Yes
Format settings, ReFrames : 6 frames
Codec ID : avc1
Codec ID/Info : Advanced Video Coding
Duration : 55mn 9s
Bit rate : 850 Kbps
Maximum bit rate : 15.7 Mbps
Width : 800 pixels
Height : 448 pixels
Display aspect ratio : 16:9
Frame rate mode : Constant
Frame rate : 23.976 fps
Color space : YUV
Chroma subsampling : 4:2:0
Bit depth : 8 bits
Scan type : Progressive
Bits/(Pixel*Frame) : 0.099
Stream size : 336 MiB (87%)
Writing library : x264 core 124 r2197 69a0443
Encoding settings : cabac=1 / ref=6 / deblock=1:0:0 / analyse=0x1:0x111 / me=umh / subme=9 / psy=1 / psy_rd=1.00:0.00 / mixed_ref=1 / me_range=24 / chroma_me=1 / trellis=1 / 8x8dct=0 / cqm=0 / deadzone=21,11 / fast_pskip=0 / chroma_qp_offset=-2 / threads=4 / sliced_threads=0 / nr=0 / decimate=1 / interlaced=0 / bluray_compat=0 / constrained_intra=0 / bframes=6 / b_pyramid=2 / b_adapt=2 / b_bias=0 / direct=3 / weightb=1 / open_gop=0 / weightp=2 / keyint=250 / keyint_min=23 / scenecut=40 / intra_refresh=0 / rc_lookahead=40 / rc=2pass / mbtree=1 / bitrate=850 / ratetol=1.0 / qcomp=0.60 / qpmin=0 / qpmax=69 / qpstep=4 / cplxblur=20.0 / qblur=0.5 / ip_ratio=1.40 / aq=1:1.00
Encoded date : UTC 2012-07-07 10:15:09
Tagged date : UTC 2012-07-07 10:15:25
Audio #2
ID : 2
Format : AAC
Format/Info : Advanced Audio Codec
Format profile : LC
Codec ID : 40
Duration : 55mn 10s
Bit rate mode : Variable
Bit rate : 128 Kbps
Maximum bit rate : 154 Kbps
Channel(s) : 2 channels
Channel positions : Front: L R
Sampling rate : 48.0 KHz
Compression mode : Lossy
Delay relative to video : 83ms
Stream size : 50.5 MiB (13%)
Encoded date : UTC 2012-07-07 10:15:23
Tagged date : UTC 2012-07-07 10:15:25
-

Скриншоты


_________________
Показать сообщения:    

Текущее время: Сегодня 13:38

Часовой пояс: GMT



Вы не можете начинать темы
Вы не можете отвечать на сообщения
Вы не можете редактировать свои сообщения
Вы не можете удалять свои сообщения
Вы не можете голосовать в опросах
Вы не можете прикреплять файлы к сообщениям
Вы не можете скачивать файлы