Важное объявление!
У Нас Все раздачи мультитрекерные, при нуле пиров в релизах, можете смело вставать на закачку!
 
Автор Сообщение

HUNTER

Стаж:
4 года 4 месяца
Сообщений:
56755

Репутация: 101

[+] [-]
Вне форума [Профиль] [ЛС]

Игра в прятки / Hide and Seek / Open Matte
Страна: США, Германия
Жанр: ужасы, триллер, детектив
Год выпуска: 2005
Продолжительность: 01:34:02
Перевод: Профессиональный (дублированный)
Cубтитры: нет
Оригинальная аудиодорожка: нет
Режиссер: Джон Полсон / John Polson
В ролях: Роберт Де Ниро, Дакота Фаннинг, Фамке Янссен, Элизабет Шу, Эми Ирвинг, Дилан Бейкер, Мелисса Лео, Роберт Джон Бёрк, Молли Грант Кэллинс, Дэвид Чандлер
Описание: После того, как жена Дэвида Кэллоуэя совершает самоубийство, он вместе со своей девятилетней дочерью Эмили переезжает в провинциальный городок, дабы попытаться начать все заново. Однако спустя время с Дэвидом и его дочерью начинают происходить таинственные и пугающие события. Виной тому – друг Эмили по имени Чарли… Друг, который был выдуман ею.
Доп. информация: Наполнение кадра отличается от BD http://screenshotcomparison.com/comparison/164861
Сэмпл: http://multi-up.com/1092366
Тип релиза: HDTV 1080i
Контейнер: TS
Видео: AVC, 1920x1080 (16:9), 25.000 fps, 7 410 Kbps (0.143 bit/pixel)
Аудио: MP2, 48.0 KHz, 2 ch, 192 Kbps, CBR (Russian)

MediaInfo

Общее
Идентификатор : 7 (0x7)
Полное имя : N:\Игра в прятки.ts
Формат : MPEG-TS
Размер файла : 5,26 Гбайт
Продолжительность : 1 ч. 34 м.
Режим общего битрейта : Переменный
Общий поток : 8000 Кбит/сек
Видео
Идентификатор : 2141 (0x85D)
Идентификатор меню : 21004 (0x520C)
Формат : AVC
Формат/Информация : Advanced Video Codec
Профиль формата : Main@L4
Параметр CABAC формата : Да
Параметр ReFrames формата : 3 кадра
Идентификатор кодека : 27
Продолжительность : 1 ч. 34 м.
Битрейт : 7410 Кбит/сек
Ширина : 1920 пикселей
Высота : 1080 пикселей
Соотношение сторон : 16:9
Частота кадров : 25,000 кадров/сек
Стандарт вещания : Component
Цветовое пространство : YUV
Субдискретизация насыщенности : 4:2:0
Битовая глубина : 8 бит
Тип развёртки : Чересстрочная
Метод сохранения типа развёртки : Раздельные поля
Порядок развёртки : Верхнее поле первое
Бит/(Пиксели*Кадры) : 0.143
Размер потока : 4,87 Гбайт (93%)
Цветовой диапазон : Limited
Основные цвета : BT.709
Характеристики трансфера : BT.709
Коэффициенты матрицы : BT.709
Аудио
Идентификатор : 2142 (0x85E)
Идентификатор меню : 21004 (0x520C)
Формат : MPEG Audio
Версия формата : Version 1
Профиль формата : Layer 2
Идентификатор кодека : 4
Продолжительность : 1 ч. 34 м.
Вид битрейта : Постоянный
Битрейт : 192 Кбит/сек
Каналы : 2 канала
Частота : 48,0 КГц
Метод сжатия : С потерями
Задержка видео : -14 мс.
Размер потока : 129 Мбайт (2%)
Язык : Russian

Скриншоты


_________________
Показать сообщения:    

Текущее время: Сегодня 18:32

Часовой пояс: GMT



Вы не можете начинать темы
Вы не можете отвечать на сообщения
Вы не можете редактировать свои сообщения
Вы не можете удалять свои сообщения
Вы не можете голосовать в опросах
Вы не можете прикреплять файлы к сообщениям
Вы не можете скачивать файлы