Важное объявление!
У Нас Все раздачи мультитрекерные, при нуле пиров в релизах, можете смело вставать на закачку!
 
Автор Сообщение

HUNTER

Стаж:
4 года 4 месяца
Сообщений:
56765

Репутация: 101

[+] [-]
Вне форума [Профиль] [ЛС]

Иван Царевич и Серый Волк
Страна: Россия
Студия: анимационная студия «Мельница»
Жанр: мультфильм, комедия, приключения
Год выпуска: 2013
Продолжительность: 01:26:03
Субтитры: русские, английские
Режиссер: Владимир Торопчин
В ролях: Никита Ефремов, Татьяна Бунина, Артур Смольянинов, Иван Охлобыстин, Виктор Сухоруков, Сергей Гармаш, Михаил Боярский, Сергей Русскин, Александр Боярский, Лия Ахеджакова, Кристина Асмус, Олег Куликович, Елена Шульман, Константин Бронзит, Анатолий Петров
Описание: Смешная и захватывающая сказка от создателей анимационных блокбастеров о русских богатырях, где действуют герои, хорошо знакомые всем с раннего детства: Василиса Премудрая, Иван Царевич, Серый Волк, Баба Яга, ученый кот и другие официальные лица... В некотором царстве, в некотором государстве жила-была Василиса, царская дочь. И всем была хороша Василиса - и красива, и умна, да только замуж выходить не хотела, думала еще немного поучиться. Получить второе образование. И решил тогда царь выдать ее за первого встречного... которым оказывается Иван из соседнего царства... Но скоро сказка сказывается, да не скоро дело делается, не просто оказалось стать мужем царской дочки, нужно еще пройти сказочное испытание. И отправился Иван со своим помощником Серым Волком в путешествие по Тридевятому царству.

Релиз: fanatus
Качество видео: BDRip 720p
Исходник: IVAN_VOLK (Blu-Ray)
Контейнер: MKV
Видео: MPEG-4 AVC, 2566 kbps , 1280x690 (1.85:1), 23.976 fps, 0.121 bit/pixel
Аудио: AC3, 6 ch, 48 kHz, 640 kbps
Формат субтитров: softsub (SRT)
Главы: есть
MediaInfo
General
Unique ID : 219784199581883879594639079938972611114 (0xA558E5AA2AC398B480FEC357F1F2722A)
Complete name : E:\Ivan_Carevich_i_Seryj_Volk.2011.x264.BDRip.720p.fanatus.mkv
Format : Matroska
Format version : Version 2
File size : 1.93 GiB
Duration : 1h 25mn
Overall bit rate : 3 209 Kbps
Movie name : Ivan Carevich i Seryj Volk (2011) - fanatus
Encoded date : UTC 2014-05-13 04:16:06
Writing application : mkvmerge v3.4.0 ('Rapunzel') сборка от May 15 2010 09:38:20
Writing library : libebml v0.8.0 + libmatroska v0.9.0
Video
ID : 1
Format : AVC
Format/Info : Advanced Video Codec
Format profile : High@L4.1
Format settings, CABAC : Yes
Format settings, ReFrames : 9 frames
Codec ID : V_MPEG4/ISO/AVC
Duration : 1h 25mn
Bit rate : 2 566 Kbps
Width : 1 280 pixels
Height : 690 pixels
Display aspect ratio : 1.85:1
Frame rate : 23.976 fps
Color space : YUV
Chroma subsampling : 4:2:0
Bit depth : 8 bits
Scan type : Progressive
Bits/(Pixel*Frame) : 0.121
Stream size : 1.50 GiB (78%)
Title : Ivan Carevich i Seryj Volk (2011) BDRip (720p)
Writing library : x264 core 142 r2431+42 c69a006 tMod [8-bit@all X86]
Encoding settings : cabac=1 / ref=9 / deblock=1:-2:-2 / analyse=0x3:0x113 / me=tesa / subme=11 / psy=1 / fade_compensate=0.00 / psy_rd=0.80:0.00 / mixed_ref=1 / me_range=64 / chroma_me=1 / trellis=2 / 8x8dct=1 / cqm=0 / deadzone=21,11 / fast_pskip=0 / chroma_qp_offset=-2 / threads=16 / lookahead_threads=4 / sliced_threads=0 / nr=0 / decimate=0 / interlaced=0 / bluray_compat=0 / constrained_intra=0 / fgo=0 / bframes=12 / b_pyramid=2 / b_adapt=2 / b_bias=0 / direct=3 / weightb=1 / open_gop=0 / weightp=2 / keyint=240 / keyint_min=23 / scenecut=40 / intra_refresh=0 / rc_lookahead=240 / rc=2pass / mbtree=0 / bitrate=2566 / ratetol=1.0 / qcomp=0.70 / qpmin=0:0:0 / qpmax=69:69:69 / qpstep=4 / cplxblur=20.0 / qblur=0.5 / vbv_maxrate=50000 / vbv_bufsize=62500 / nal_hrd=none / filler=0 / ip_ratio=1.35 / pb_ratio=1.25 / aq=4:0.80 / aq-sensitivity=10.00 / aq-factor=1.00:1.00:1.00 / aq2=0 / aq3=0
Language : Russian
Default : Yes
Forced : No
Audio
ID : 2
Format : AC-3
Format/Info : Audio Coding 3
Mode extension : CM (complete main)
Format settings, Endianness : Big
Codec ID : A_AC3
Duration : 1h 25mn
Bit rate mode : Constant
Bit rate : 640 Kbps
Channel(s) : 6 channels
Channel positions : Front: L C R, Side: L R, LFE
Sampling rate : 48.0 KHz
Bit depth : 16 bits
Compression mode : Lossy
Stream size : 394 MiB (20%)
Title : Original
Language : Russian
Default : Yes
Forced : No
Text #1
ID : 3
Format : UTF-8
Codec ID : S_TEXT/UTF8
Codec ID/Info : UTF-8 Plain Text
Language : Russian
Default : No
Forced : No
Text #2
ID : 4
Format : UTF-8
Codec ID : S_TEXT/UTF8
Codec ID/Info : UTF-8 Plain Text
Language : English
Default : No
Forced : No
Menu
00:00:00.000 : en:Chapter 01
00:08:19.916 : en:Chapter 02
00:15:17.041 : en:Chapter 03
00:22:17.419 : en:Chapter 04
00:29:20.925 : en:Chapter 05
00:36:09.500 : en:Chapter 06
00:45:12.918 : en:Chapter 07
00:53:30.790 : en:Chapter 08
01:00:45.433 : en:Chapter 09
01:06:53.134 : en:Chapter 10
01:14:10.988 : en:Chapter 11
01:21:09.656 : en:Chapter 12
01:25:58.069 : en:Chapter 13
x264 [info]
x264 [info]: 1280x690p 1:1 @ 24000/1001 fps (cfr)
x264 [info]: started at Mon May 12 10:27:31 2014
x264 [info]: frame I:1438 Avg QP: 8.65 size:190432
x264 [info]: frame P:34090 Avg QP:12.72 size: 24137
x264 [info]: frame B:88144 Avg QP:13.47 size: 6333
x264 [info]: consecutive B-frames: 5.1% 7.1% 12.3% 41.7% 16.1% 7.4% 2.7% 1.6% 1.6% 0.9% 1.0% 1.0% 1.5%
x264 [info]: mb I I16..4: 8.7% 45.8% 45.5%
x264 [info]: mb P I16..4: 0.4% 2.2% 1.9% P16..4: 15.9% 10.7% 8.0% 0.0% 0.0% skip:60.9%
x264 [info]: mb B I16..4: 0.1% 0.2% 0.2% B16..8: 10.9% 4.9% 2.0% direct: 1.4% skip:80.2% L0:44.9% L1:45.9% BI: 9.2%
x264 [info]: 8x8 transform intra:46.4% inter:22.0%
x264 [info]: direct mvs spatial:95.8% temporal:4.2%
x264 [info]: coded y,uvDC,uvAC intra: 75.3% 80.7% 77.2% inter: 7.1% 8.5% 7.3%
x264 [info]: i16 v,h,dc,p: 56% 22% 7% 15%
x264 [info]: i8 v,h,dc,ddl,ddr,vr,hd,vl,hu: 19% 20% 18% 6% 6% 6% 7% 8% 11%
x264 [info]: i4 v,h,dc,ddl,ddr,vr,hd,vl,hu: 24% 14% 14% 7% 9% 8% 8% 7% 9%
x264 [info]: i8c dc,h,v,p: 42% 31% 19% 8%
x264 [info]: Weighted P-Frames: Y:0.8% UV:0.6%
x264 [info]: ref P L0: 58.8% 3.5% 14.6% 6.6% 5.0% 3.6% 2.7% 2.2% 2.4% 0.6% 0.0%
x264 [info]: ref B L0: 70.7% 12.4% 6.4% 3.4% 3.3% 1.8% 1.3% 0.7%
x264 [info]: ref B L1: 93.6% 6.4%
x264 [info]: kb/s:2566.61
x264 [info]: encoded 123672 frames, 3.145 fps, 2566.61 kb/s, 1578.2 MB
x264 [info]: ended at Mon May 12 21:22:57 2014
x264 [info]: encoding duration 10:55:26
Скриншот c названием фильмаСкриншотыSource vs Rip

_________________
Показать сообщения:    

Текущее время: Сегодня 04:26

Часовой пояс: GMT



Вы не можете начинать темы
Вы не можете отвечать на сообщения
Вы не можете редактировать свои сообщения
Вы не можете удалять свои сообщения
Вы не можете голосовать в опросах
Вы не можете прикреплять файлы к сообщениям
Вы не можете скачивать файлы