Важное объявление!
У Нас Все раздачи мультитрекерные, при нуле пиров в релизах, можете смело вставать на закачку!
 
Автор Сообщение

HUNTER

Стаж:
4 года 4 месяца
Сообщений:
56790

Репутация: 101

[+] [-]
Вне форума [Профиль] [ЛС]

Иван Царевич и Серый Волк 2
Страна: Россия
Студия: анимационная студия «Мельница»
Жанр: мультфильм, приключения, сказка
Год выпуска: 2013
Продолжительность: 01:12:37
Субтитры: русские
Режиссер: Владимир Торопчин
В ролях: Никита Ефремов, Татьяна Бунина, Иван Охлобыстин, Михаил Боярский, Ирина Рахманова, Александр Боярский
Описание: В Тридевятом царстве, где живут наши герои — тишь, да благодать. Иван женился на Василисе, и «жили они долго и счастливо», да не тут-то было. Иван целыми днями пропадает с Волком на службе — укрепляет рубежи и оборонную мощь, мечтает перевести стрелки часов на семь часов назад, чтобы меньше спать, и больше работать. А Василисе — скучно, как всем девушкам, ей хочется романтики, ну, такой, как в сказках. И тогда она решает организовать свое похищение… Однако, когда такое бывало, что в сказках все получалось так, как задумывалось?

Релиз: fanatus
Качество видео: BDRip 720p
Исходник: Ivan.Tsarevich.2.(2013).Blu-Ray
Контейнер: MKV
Видео: MPEG-4 AVC, 2400 kbps , 1280x720 (16:9), 24.000 fps, 0.109 bit/pixel
Аудио: AC3, 6 ch, 48 kHz, 640 kbps
Формат субтитров: softsub (SRT)
Главы: есть
MediaInfo
General
Unique ID : 251468579977650920143449766857420640731 (0xBD2F163A2C49518B806FA9986A2911DB)
Complete name : E:\Ivan_Carevich_i_Seryj_Volk_2.2013.x264.BDRip.720p.fanatus.mkv
Format : Matroska
Format version : Version 2
File size : 1.54 GiB
Duration : 1h 12mn
Overall bit rate : 3 043 Kbps
Movie name : Ivan Carevich i Seryj Volk 2 (2013) - fanatus
Encoded date : UTC 2014-05-12 06:22:03
Writing application : mkvmerge v3.4.0 ('Rapunzel') сборка от May 15 2010 09:38:20
Writing library : libebml v0.8.0 + libmatroska v0.9.0
Video
ID : 1
Format : AVC
Format/Info : Advanced Video Codec
Format profile : High@L4.1
Format settings, CABAC : Yes
Format settings, ReFrames : 8 frames
Codec ID : V_MPEG4/ISO/AVC
Duration : 1h 12mn
Bit rate : 2 400 Kbps
Width : 1 280 pixels
Height : 720 pixels
Display aspect ratio : 16:9
Frame rate : 24.000 fps
Color space : YUV
Chroma subsampling : 4:2:0
Bit depth : 8 bits
Scan type : Progressive
Bits/(Pixel*Frame) : 0.109
Stream size : 1.19 GiB (77%)
Title : Ivan Carevich i Seryj Volk 2 (2013) BDRip (720p)
Writing library : x264 core 142 r2431+42 c69a006 tMod [8-bit@all X86]
Encoding settings : cabac=1 / ref=8 / deblock=1:-2:-2 / analyse=0x3:0x113 / me=tesa / subme=11 / psy=1 / fade_compensate=0.00 / psy_rd=0.80:0.00 / mixed_ref=1 / me_range=64 / chroma_me=1 / trellis=2 / 8x8dct=1 / cqm=0 / deadzone=21,11 / fast_pskip=0 / chroma_qp_offset=-2 / threads=16 / lookahead_threads=4 / sliced_threads=0 / nr=0 / decimate=0 / interlaced=0 / bluray_compat=0 / constrained_intra=0 / fgo=0 / bframes=12 / b_pyramid=2 / b_adapt=2 / b_bias=0 / direct=3 / weightb=1 / open_gop=0 / weightp=2 / keyint=240 / keyint_min=24 / scenecut=40 / intra_refresh=0 / rc_lookahead=240 / rc=2pass / mbtree=0 / bitrate=2400 / ratetol=1.0 / qcomp=0.70 / qpmin=0:0:0 / qpmax=69:69:69 / qpstep=4 / cplxblur=20.0 / qblur=0.5 / vbv_maxrate=50000 / vbv_bufsize=62500 / nal_hrd=none / filler=0 / ip_ratio=1.35 / pb_ratio=1.25 / aq=4:0.80 / aq-sensitivity=10.00 / aq-factor=1.00:1.00:1.00 / aq2=0 / aq3=0
Language : Russian
Default : Yes
Forced : No
Audio
ID : 2
Format : AC-3
Format/Info : Audio Coding 3
Mode extension : CM (complete main)
Format settings, Endianness : Big
Codec ID : A_AC3
Duration : 1h 12mn
Bit rate mode : Constant
Bit rate : 640 Kbps
Channel(s) : 6 channels
Channel positions : Front: L C R, Side: L R, LFE
Sampling rate : 48.0 KHz
Bit depth : 16 bits
Compression mode : Lossy
Stream size : 332 MiB (21%)
Title : Original
Language : Russian
Default : Yes
Forced : No
Text
ID : 3
Format : UTF-8
Codec ID : S_TEXT/UTF8
Codec ID/Info : UTF-8 Plain Text
Language : Russian
Default : No
Forced : No
Menu
00:00:00.000 : en:Chapter 01
00:08:56.291 : en:Chapter 02
00:17:20.708 : en:Chapter 03
00:30:52.708 : en:Chapter 04
00:42:35.791 : en:Chapter 05
01:00:23.875 : en:Chapter 06
x264 [info]
x264 [info]: 1280x720p 1:1 @ 24/1 fps (cfr)
x264 [info]: frame I:1198 Avg QP:10.73 size:152607
x264 [info]: frame P:29573 Avg QP:14.82 size: 21664
x264 [info]: frame B:73816 Avg QP:15.44 size: 6560
x264 [info]: consecutive B-frames: 5.8% 6.4% 13.8% 40.7% 15.0% 11.6% 1.8% 1.3% 0.6% 1.8% 0.4% 0.2% 0.7%
x264 [info]: mb I I16..4: 9.0% 49.4% 41.7%
x264 [info]: mb P I16..4: 1.4% 3.2% 2.2% P16..4: 22.8% 14.2% 8.0% 0.0% 0.0% skip:48.2%
x264 [info]: mb B I16..4: 0.3% 0.5% 0.3% B16..8: 16.7% 6.7% 2.3% direct: 1.4% skip:71.9% L0:46.4% L1:47.0% BI: 6.6%
x264 [info]: 8x8 transform intra:47.4% inter:26.8%
x264 [info]: direct mvs spatial:95.6% temporal:4.4%
x264 [info]: coded y,uvDC,uvAC intra: 51.2% 60.2% 51.1% inter: 6.8% 9.0% 6.4%
x264 [info]: i16 v,h,dc,p: 51% 33% 5% 11%
x264 [info]: i8 v,h,dc,ddl,ddr,vr,hd,vl,hu: 13% 19% 30% 5% 5% 6% 6% 6% 9%
x264 [info]: i4 v,h,dc,ddl,ddr,vr,hd,vl,hu: 16% 18% 20% 6% 9% 8% 7% 6% 9%
x264 [info]: i8c dc,h,v,p: 31% 46% 16% 7%
x264 [info]: Weighted P-Frames: Y:1.2% UV:0.8%
x264 [info]: ref P L0: 57.8% 2.9% 16.2% 7.4% 5.1% 4.2% 3.4% 2.5% 0.7% 0.0%
x264 [info]: ref B L0: 66.6% 14.4% 8.0% 4.2% 3.8% 2.0% 1.0%
x264 [info]: ref B L1: 91.7% 8.3%
x264 [info]: kb/s:2400.75
x264 [info]: encoded 104587 frames, 2.881 fps, 2400.75 kb/s, 1247.2 MB
x264 [info]: ended at Mon May 12 09:15:32 2014
x264 [info]: encoding duration 10:05:00
Скриншот c названием фильмаСкриншотыSource vs Rip

_________________
Показать сообщения:    

Текущее время: Сегодня 18:53

Часовой пояс: GMT



Вы не можете начинать темы
Вы не можете отвечать на сообщения
Вы не можете редактировать свои сообщения
Вы не можете удалять свои сообщения
Вы не можете голосовать в опросах
Вы не можете прикреплять файлы к сообщениям
Вы не можете скачивать файлы