Важное объявление!
У Нас Все раздачи мультитрекерные, при нуле пиров в релизах, можете смело вставать на закачку!
 
Автор Сообщение

HUNTER

Стаж:
4 года 4 месяца
Сообщений:
56719

Репутация: 101

[+] [-]
Вне форума [Профиль] [ЛС]

Иван Царевич и Серый Волк 2
Страна: Россия
Студия: анимационная студия «Мельница»
Жанр: мультфильм, приключения, сказка
Год выпуска: 2013
Продолжительность: 01:12:37
Субтитры: русские
Режиссер: Владимир Торопчин
В ролях: Никита Ефремов, Татьяна Бунина, Иван Охлобыстин, Михаил Боярский, Ирина Рахманова, Александр Боярский
Описание: В Тридевятом царстве, где живут наши герои — тишь, да благодать. Иван женился на Василисе, и «жили они долго и счастливо», да не тут-то было. Иван целыми днями пропадает с Волком на службе — укрепляет рубежи и оборонную мощь, мечтает перевести стрелки часов на семь часов назад, чтобы меньше спать, и больше работать. А Василисе — скучно, как всем девушкам, ей хочется романтики, ну, такой, как в сказках. И тогда она решает организовать свое похищение… Однако, когда такое бывало, что в сказках все получалось так, как задумывалось?

Релиз: fanatus
Качество видео: BDRip 1080p
Исходник: Ivan.Tsarevich.2.(2013).Blu-Ray
Контейнер: MKV
Видео: MPEG-4 AVC, 4856 kbps , 1920x1080 (16:9), 24.000 fps, 0.098 bit/pixel
Аудио: DTS, 6 ch, 48 kHz, 1510 kbps
Формат субтитров: softsub (SRT)
Главы: есть
MediaInfo
General
Unique ID : 233955813310475507797739797401886392497 (0xB002402AB794EA7F8EF3B977356600B1)
Complete name : E:\Ivan_Carevich_i_Seryj_Volk_2.2013.x264.BDRip.1080p.fanatus.mkv
Format : Matroska
Format version : Version 2
File size : 3.23 GiB
Duration : 1h 12mn
Overall bit rate : 6 370 Kbps
Movie name : Ivan Carevich i Seryj Volk 2 (2013) - fanatus
Encoded date : UTC 2014-05-11 18:09:49
Writing application : mkvmerge v3.4.0 ('Rapunzel') сборка от May 15 2010 09:38:20
Writing library : libebml v0.8.0 + libmatroska v0.9.0
Video
ID : 1
Format : AVC
Format/Info : Advanced Video Codec
Format profile : High@L4.1
Format settings, CABAC : Yes
Format settings, ReFrames : 4 frames
Codec ID : V_MPEG4/ISO/AVC
Duration : 1h 12mn
Bit rate : 4 856 Kbps
Width : 1 920 pixels
Height : 1 080 pixels
Display aspect ratio : 16:9
Frame rate : 24.000 fps
Color space : YUV
Chroma subsampling : 4:2:0
Bit depth : 8 bits
Scan type : Progressive
Bits/(Pixel*Frame) : 0.098
Stream size : 2.40 GiB (74%)
Title : Ivan Carevich i Seryj Volk 2 (2013) BDRip (1080p)
Writing library : x264 core 142 r2431+42 c69a006 tMod [8-bit@all X86]
Encoding settings : cabac=1 / ref=4 / deblock=1:-2:-2 / analyse=0x3:0x113 / me=tesa / subme=11 / psy=1 / fade_compensate=0.00 / psy_rd=0.80:0.00 / mixed_ref=1 / me_range=128 / chroma_me=1 / trellis=2 / 8x8dct=1 / cqm=0 / deadzone=21,11 / fast_pskip=0 / chroma_qp_offset=-2 / threads=16 / lookahead_threads=2 / sliced_threads=0 / nr=0 / decimate=0 / interlaced=0 / bluray_compat=0 / constrained_intra=0 / fgo=0 / bframes=8 / b_pyramid=2 / b_adapt=2 / b_bias=0 / direct=3 / weightb=1 / open_gop=0 / weightp=2 / keyint=240 / keyint_min=24 / scenecut=40 / intra_refresh=0 / rc_lookahead=240 / rc=2pass / mbtree=0 / bitrate=4856 / ratetol=1.0 / qcomp=0.70 / qpmin=0:0:0 / qpmax=69:69:69 / qpstep=4 / cplxblur=20.0 / qblur=0.5 / vbv_maxrate=50000 / vbv_bufsize=62500 / nal_hrd=none / filler=0 / ip_ratio=1.35 / pb_ratio=1.25 / aq=4:0.80 / aq-sensitivity=10.00 / aq-factor=1.00:1.00:1.00 / aq2=0 / aq3=0
Language : Russian
Default : Yes
Forced : No
Audio
ID : 2
Format : DTS
Format/Info : Digital Theater Systems
Codec ID : A_DTS
Duration : 1h 12mn
Bit rate mode : Constant
Bit rate : 1 510 Kbps
Channel(s) : 6 channels
Channel positions : Front: L C R, Side: L R, LFE
Sampling rate : 48.0 KHz
Bit depth : 16 bits
Compression mode : Lossy
Stream size : 784 MiB (24%)
Title : Original
Language : Russian
Default : Yes
Forced : No
Text
ID : 3
Format : UTF-8
Codec ID : S_TEXT/UTF8
Codec ID/Info : UTF-8 Plain Text
Language : Russian
Default : No
Forced : No
Menu
00:00:00.000 : en:Chapter 01
00:08:56.291 : en:Chapter 02
00:17:20.708 : en:Chapter 03
00:30:52.708 : en:Chapter 04
00:42:35.791 : en:Chapter 05
01:00:23.875 : en:Chapter 06
x264 [info]
x264 [info]: 1920x1080p 1:1 @ 24/1 fps (cfr)
x264 [info]: frame I:1240 Avg QP:10.26 size:255841
x264 [info]: frame P:33255 Avg QP:14.21 size: 43105
x264 [info]: frame B:70092 Avg QP:14.65 size: 12772
x264 [info]: consecutive B-frames: 8.8% 10.6% 12.2% 37.7% 14.3% 11.9% 1.7% 1.4% 1.5%
x264 [info]: mb I I16..4: 19.1% 36.4% 44.6%
x264 [info]: mb P I16..4: 2.9% 5.2% 3.9% P16..4: 26.7% 9.6% 4.7% 0.0% 0.0% skip:46.9%
x264 [info]: mb B I16..4: 0.8% 1.1% 0.7% B16..8: 19.6% 4.9% 1.3% direct: 1.4% skip:70.1% L0:47.8% L1:46.4% BI: 5.8%
x264 [info]: 8x8 transform intra:42.2% inter:25.8%
x264 [info]: direct mvs spatial:96.6% temporal:3.4%
x264 [info]: coded y,uvDC,uvAC intra: 48.1% 52.5% 39.7% inter: 6.6% 11.8% 7.1%
x264 [info]: i16 v,h,dc,p: 42% 29% 13% 16%
x264 [info]: i8 v,h,dc,ddl,ddr,vr,hd,vl,hu: 14% 19% 39% 4% 4% 5% 4% 4% 6%
x264 [info]: i4 v,h,dc,ddl,ddr,vr,hd,vl,hu: 23% 18% 30% 4% 7% 7% 4% 4% 5%
x264 [info]: i8c dc,h,v,p: 25% 50% 17% 8%
x264 [info]: Weighted P-Frames: Y:1.1% UV:0.8%
x264 [info]: ref P L0: 65.4% 2.5% 19.8% 9.8% 2.4% 0.0%
x264 [info]: ref B L0: 81.9% 14.6% 3.5%
x264 [info]: ref B L1: 91.7% 8.3%
x264 [info]: kb/s:4857.35
x264 [info]: encoded 104587 frames, 0.7832 fps, 4857.36 kb/s, 2523.3 MB
x264 [info]: ended at Sun May 11 02:28:44 2014
x264 [info]: encoding duration 37:05:36
Скриншот c названием фильмаСкриншотыSource vs Rip

_________________
Показать сообщения:    

Текущее время: Сегодня 19:34

Часовой пояс: GMT



Вы не можете начинать темы
Вы не можете отвечать на сообщения
Вы не можете редактировать свои сообщения
Вы не можете удалять свои сообщения
Вы не можете голосовать в опросах
Вы не можете прикреплять файлы к сообщениям
Вы не можете скачивать файлы