Важное объявление!
У Нас Все раздачи мультитрекерные, при нуле пиров в релизах, можете смело вставать на закачку!
 
Автор Сообщение

димитри37

Стаж:
3 года 9 месяцев
Сообщений:
1237

Репутация: 127

[+] [-]
Вне форума [Профиль] [ЛС]


И твою маму тоже / Y tu mamа tambiеn
Название: И твою маму тоже
Оригинальное название: Y tu mamá también
Год выхода: 2001
Жанр: драма, эротика
Режиссер: Альфонсо Куарон
В ролях: Марибель Верду, Диего Луна, Гаэль Гарсия Берналь, Натан Гринбер, Вероника Ленджер, Мария Аура, Жизелль Одри, Артуро Риос, Андрес Альмейда, Диана Брашо, Эмилио Эчеваррия, Марта Аура, Ана Лопез Меркадо, Жан Карлос Ремолина, Либория Родригес, Сильверио Палашиос, Майра Сербуло, Андреа Лопе...
О фильме: Двое друзей, не обремененных моральными принципами и мучимые подростковыми гормонами, ищут под жарким солнцем Мексики приключений. Ищут — и находят. Познакомившись на празднике с испанской красоткой Луизой, чье сердце безнадежно разбито, они приглашают ее отправиться в поездку на мифический пляж с романтическим названием «Небесные уста» — в мир фантазий и грез, где исполняются мечты. Луиза, решив развеяться и заодно излечить свое разбитое сердце, принимает приглашение мальчиков. Они еще не знают самого главного…


Ссылка: Источник
Страна: Мексика
Продолжительность: 01:45:38
Перевод: Авторский (одноголосый закадровый) Ю. Сербин, Профессиональный (двухголосый закадровый)
Файл
Кодек: x.264
Качество: BDRip-AVC
Видео: 1024x544 (1,882), 24 fps, 1390 kbps, 0.104 bit/pixel
Аудио #1: 48 kHz, AC3 Dolby Digital, 2 ch, ~192.00 kbps (Ю. Сербин)
Аудио #2: 48 kHz, AC3 Dolby Digital, 6 ch, ~384.00 kbps (Двухголосый)
Субтитры: Русские, Английские (отключаемые)

Награды

MediaInfo

Общее
Уникальный идентификатор : 248176741413451640622045180249484371454 (0xBAB51A0E2DF14785A82618B0015925FE)
Полное имя : D:TorrentY tu mama tambien.2001.BDRip-AVC.mkv
Формат : Matroska
Версия формата : Version 4 / Version 2
Размер файла : 1,45 Гбайт
Продолжительность : 1 ч. 45 м.
Общий поток : 1966 Кбит/сек
Название фильма : И твою маму тоже / Y tu mamá también (2001) BDRip-AVC rip by Rulya74
Дата кодирования : UTC 2013-05-17 08:09:35
Программа кодирования : mkvmerge v6.2.0 ('Promised Land') built on Apr 28 2013 12:22:01
Библиотека кодирования : libebml v1.3.0 + libmatroska v1.4.0
Видео
Идентификатор : 1
Формат : AVC
Формат/Информация : Advanced Video Codec
Профиль формата : High@L4.1
Параметр CABAC формата : Да
Параметр ReFrames формата : 12 кадров
Идентификатор кодека : V_MPEG4/ISO/AVC
Продолжительность : 1 ч. 45 м.
Битрейт : 1390 Кбит/сек
Ширина : 1024 пикселя
Высота : 544 пикселя
Соотношение сторон : 1,882
Режим частоты кадров : Постоянный
Частота кадров : 24,000 кадра/сек
Цветовое пространство : YUV
Субдискретизация насыщенности : 4:2:0
Битовая глубина : 8 бит
Тип развёртки : Прогрессивная
Бит/(Пиксели*Кадры) : 0.104
Размер потока : 1021 Мбайт (69%)
Библиотека кодирования : x264 core 132 r2310 76a5c3a
Настройки программы : cabac=1 / ref=12 / deblock=1:-3:-3 / analyse=0x3:0x113 / me=umh / subme=9 / psy=1 / psy_rd=1.15:0.04 / mixed_ref=1 / me_range=32 / chroma_me=1 / trellis=2 / 8x8dct=1 / cqm=0 / deadzone=21,11 / fast_pskip=0 / chroma_qp_offset=-3 / threads=10 / lookahead_threads=1 / sliced_threads=0 / nr=0 / decimate=1 / interlaced=0 / bluray_compat=0 / constrained_intra=0 / bframes=7 / b_pyramid=2 / b_adapt=2 / b_bias=0 / direct=3 / weightb=1 / open_gop=0 / weightp=2 / keyint=240 / keyint_min=22 / scenecut=40 / intra_refresh=0 / rc_lookahead=40 / rc=2pass / mbtree=1 / bitrate=1390 / ratetol=1.0 / qcomp=0.60 / qpmin=0 / qpmax=69 / qpstep=4 / cplxblur=20.0 / qblur=0.5 / vbv_maxrate=62500 / vbv_bufsize=78125 / nal_hrd=none / ip_ratio=1.40 / aq=1:1.00
Default : Да
Forced : Нет
Аудио #1
Идентификатор : 2
Формат : AC-3
Формат/Информация : Audio Coding 3
Расширение режима : CM (complete main)
Параметр Endianness формата : Big
Идентификатор кодека : A_AC3
Продолжительность : 1 ч. 45 м.
Вид битрейта : Постоянный
Битрейт : 192 Кбит/сек
Каналы : 2 канала
Расположение каналов : Front: L R
Частота : 48,0 КГц
Битовая глубина : 16 бит
Метод сжатия : С потерями
Размер потока : 145 Мбайт (10%)
Заголовок : Авторский (Ю. Сербин)
Язык : Russian
Default : Да
Forced : Нет
Аудио #2
Идентификатор : 3
Формат : AC-3
Формат/Информация : Audio Coding 3
Расширение режима : CM (complete main)
Параметр Endianness формата : Big
Идентификатор кодека : A_AC3
Продолжительность : 1 ч. 45 м.
Вид битрейта : Постоянный
Битрейт : 384 Кбит/сек
Каналы : 6 каналов
Расположение каналов : Front: L C R, Side: L R, LFE
Частота : 48,0 КГц
Битовая глубина : 16 бит
Метод сжатия : С потерями
Размер потока : 290 Мбайт (20%)
Заголовок : Профессиональный (двухголосый закадровый)
Язык : Russian
Default : Нет
Forced : Нет
Текст #1
Идентификатор : 4
Формат : UTF-8
Идентификатор кодека : S_TEXT/UTF8
Идентификатор кодека/Информация : UTF-8 Plain Text
Язык : Russian
Default : Да
Forced : Нет
Текст #2
Идентификатор : 5
Формат : UTF-8
Идентификатор кодека : S_TEXT/UTF8
Идентификатор кодека/Информация : UTF-8 Plain Text
Язык : English
Default : Нет
Forced : Нет

Скриншоты




Показать сообщения:    

Текущее время: Сегодня 20:36

Часовой пояс: GMT



Вы не можете начинать темы
Вы не можете отвечать на сообщения
Вы не можете редактировать свои сообщения
Вы не можете удалять свои сообщения
Вы не можете голосовать в опросах
Вы не можете прикреплять файлы к сообщениям
Вы не можете скачивать файлы
Наши партнеры: интернет магазин Ивановского трикотажа textilla.ru