Важное объявление!
У Нас Все раздачи мультитрекерные, при нуле пиров в релизах, можете смело вставать на закачку!
 
Автор Сообщение

HUNTER

Стаж:
4 года 4 месяца
Сообщений:
56829

Репутация: 101

[+] [-]
Вне форума [Профиль] [ЛС]


Золушка 3: Злые чары
Cinderella III: A Twist in Time
-

  • Год производства: 2007

  • Страна: USA

  • Жанр: фэнтези, мелодрама, мюзикл, семейный, мультфильм

  • Продолжительность: 01:13:57

  • Перевод: Профессиональный (дублированный) Студия Пифагор | BD CEE

  • Перевод: Профессиональный (двухголосый закадровый) Петр Гланц и Наталья Фищук

  • Перевод: Авторский (одноголосый закадровый) Андрей Дольский

  • Субтитры: Присутствуют-
  • Режиссер: Фрэнк Ниссен / Frank Nissen
    -
  • Описание: Злая мачеха вызывает заклинание, которое уничтожает все, что сделала Крестная. Все, что она создала (платье, лошади и карета), все с помощью чего Золушка попала на Бал — действует теперь на пользу мачехе и ее дочерям. Теперь, когда волшебство исчезло, будет ли у сказки счастливый конец? Что будет делать Золушка?
    -
  • Качество видео: BDRip 1080p

  • Формат видео: mkv

  • Видео кодек: H264

  • Аудио кодек: AC3

  • Видео: 1920x1080 (16:9), 23.976 fps, 14.7 Mbps, 0.439 bit/pixel

  • Аудио #1: Русский, Dolby Digital Audio, 5.1 , 48 kHz , 640 kbps - Дубляж | Студия Пифагор | BD CEE

  • Аудио #2: Русский, DTS-HD Master Audio, 5.1 , 48 kHz , 4117 kbps , 24-bit (DTS Core: 5.1 , 48 kHz , 1509 kbps , 24-bit) - Двухголосый закадровый | Петр Гланц и Наталья Фищук

  • Аудио #3: Русский, DTS-HD Master Audio, 5.1 , 48 kHz , 4118 kbps , 24-bit (DTS Core: 5.1 , 48 kHz , 1509 kbps , 24-bit) - Одноголосый закадровый | Андрей Дольский

  • Аудио #4: English, DTS-HD Master Audio, 5.1 , 48 kHz , 4124 kbps , 24-bit (DTS Core: 5.1 , 48 kHz , 1509 kbps , 24-bit) - Original

  • Субтитры: Русские, Українські, English, English [SDH]-
  • Автор рипа: falco
-

Доп. информация

Скриншоты

MediaInfo

Код: copyText_writeLink('this.parentNode.parentNode.nextSibling.nextSibling');
General
Unique ID : 191198158461250105264702728170410100317 (0x8FD76D05C3EBB69F82C341F5ABB4465D)
Complete name : D:\Торенты\Cinderella.3.A.Twist.in.Time.2007.BDRip.1080p.falco.mkv
Format : Matroska
Format version : Version 4 / Version 2
File size : 14.3 GiB
Duration : 1h 13mn
Overall bit rate mode : Variable
Overall bit rate : 27.7 Mbps
Encoded date : UTC 2013-08-06 08:50:08
Writing application : mkvmerge v6.3.0 ('You can't stop me!') built on Jun 28 2013 20:09:41
Writing library : libebml v1.3.0 + libmatroska v1.4.0
Video
ID : 1
Format : AVC
Format/Info : Advanced Video Codec
Format profile : [url=mailto:High@L4.1]High@L4.1[/url]
Format settings, CABAC : Yes
Format settings, ReFrames : 3 frames
Codec ID : V_MPEG4/ISO/AVC
Duration : 1h 13mn
Bit rate : 21.8 Mbps
Nominal bit rate : 14.7 Mbps
Width : 1 920 pixels
Height : 1 080 pixels
Display aspect ratio : 16:9
Frame rate : 23.976 fps
Color space : YUV
Chroma subsampling : 4:2:0
Bit depth : 8 bits
Scan type : Progressive
Bits/(Pixel*Frame) : 0.439
Stream size : 11.3 GiB (79%)
Title : BDRip 1080p / falco / rustorka.com
Writing library : x264 core 65 r999kMod cc51047
Encoding settings : cabac=1 / ref=3 / deblock=1:0:0 / analyse=0x3:0x133 / me=umh / subme=6 / psy_rd=1.0:0.0 / mixed_ref=1 / me_range=16 / chroma_me=1 / trellis=1 / 8x8dct=1 / cqm=0 / deadzone=21,11 / chroma_qp_offset=-2 / threads=4 / thread_queue=4 / nr=0 / decimate=1 / mbaff=0 / bframes=3 / b_pyramid=1 / b_adapt=1 / b_bias=0 / direct=3 / wpredb=1 / keyint=250 / keyint_min=25 / scenecut=40(pre) / rc=2pass / bitrate=14699 / ratetol=1.0 / qcomp=0.60 / qpmin=10 / qpmax=51 / qpstep=4 / cplxblur=20.0 / qblur=0.5 / ip_ratio=1.40 / pb_ratio=1.30 / aq=1:1.00
Language : Russian
Default : Yes
Forced : No
Audio #1
ID : 2
Format : AC-3
Format/Info : Audio Coding 3
Mode extension : CM (complete main)
Format settings, Endianness : Big
Codec ID : A_AC3
Duration : 1h 13mn
Bit rate mode : Constant
Bit rate : 640 Kbps
Channel(s) : 6 channels
Channel positions : Front: L C R, Side: L R, LFE
Sampling rate : 48.0 KHz
Bit depth : 16 bits
Compression mode : Lossy
Stream size : 339 MiB (2%)
Title : Дубляж | Студия Пифагор | BD CEE
Language : Russian
Default : Yes
Forced : No
Audio #2
ID : 3
Format : DTS
Format/Info : Digital Theater Systems
Format profile : MA / Core
Codec ID : A_DTS
Duration : 1h 13mn
Bit rate mode : Variable
Bit rate : 1 561 Kbps / 1 510 Kbps
Channel(s) : 6 channels
Channel positions : Front: L C R, Side: L R, LFE
Sampling rate : 48.0 KHz
Bit depth : 24 bits
Compression mode : Lossless / Lossy
Title : Двухголосый закадровый | Петр Гланц и Наталья Фищук
Language : Russian
Default : No
Forced : No
Audio #3
ID : 4
Format : DTS
Format/Info : Digital Theater Systems
Format profile : MA / Core
Codec ID : A_DTS
Duration : 1h 13mn
Bit rate mode : Variable
Bit rate : 1 561 Kbps / 1 510 Kbps
Channel(s) : 6 channels
Channel positions : Front: L C R, Side: L R, LFE
Sampling rate : 48.0 KHz
Bit depth : 24 bits
Compression mode : Lossless / Lossy
Title : Одноголосый закадровый | Андрей Дольский
Language : Russian
Default : No
Forced : No
Audio #4
ID : 5
Format : DTS
Format/Info : Digital Theater Systems
Format profile : MA / Core
Codec ID : A_DTS
Duration : 1h 13mn
Bit rate mode : Variable
Bit rate : 1 576 Kbps / 1 510 Kbps
Channel(s) : 6 channels
Channel positions : Front: L C R, Side: L R, LFE
Sampling rate : 48.0 KHz
Bit depth : 24 bits
Compression mode : Lossless / Lossy
Title : Original
Language : English
Default : No
Forced : No
Text #1
ID : 6
Format : UTF-8
Codec ID : S_TEXT/UTF8
Codec ID/Info : UTF-8 Plain Text
Language : Russian
Default : No
Forced : No
Text #2
ID : 7
Format : UTF-8
Codec ID : S_TEXT/UTF8
Codec ID/Info : UTF-8 Plain Text
Language : Ukrainian
Default : No
Forced : No
Text #3
ID : 8
Format : UTF-8
Codec ID : S_TEXT/UTF8
Codec ID/Info : UTF-8 Plain Text
Language : English
Default : No
Forced : No
Text #4
ID : 9
Format : UTF-8
Codec ID : S_TEXT/UTF8
Codec ID/Info : UTF-8 Plain Text
Title : [SDH]
Language : English
Default : No
Forced : No
Menu
00:00:00.000 : ru:01. Вступление
00:04:17.507 : ru:02. В дурных руках
00:08:02.357 : ru:03. Если туфелька подойдёт
00:13:46.242 : ru:04. Королевский мышелов
00:17:54.615 : ru:05. Маленькая путаница
00:20:58.090 : ru:06. Вы не помните?
00:25:46.420 : ru:07. Всё под контролем
00:28:21.658 : ru:08. Хороший совет
00:33:15.744 : ru:09. Два простых слова
00:36:43.159 : ru:10. Работа на дому
00:41:40.748 : ru:11. На балу
00:46:00.716 : ru:12. На помощь
00:51:34.508 : ru:13. Это ещё не конец
00:54:52.873 : ru:14. Плохой кот
01:00:58.029 : ru:15. Они жили счастливо... Снова
01:05:21.918 : ru:16. Финальные титры

_________________
Показать сообщения:    

Текущее время: Сегодня 15:29

Часовой пояс: GMT



Вы не можете начинать темы
Вы не можете отвечать на сообщения
Вы не можете редактировать свои сообщения
Вы не можете удалять свои сообщения
Вы не можете голосовать в опросах
Вы не можете прикреплять файлы к сообщениям
Вы не можете скачивать файлы