Важное объявление!
У Нас Все раздачи мультитрекерные, при нуле пиров в релизах, можете смело вставать на закачку!
 
Автор Сообщение

HUNTER

Стаж:
4 года 4 месяца
Сообщений:
56829

Репутация: 101

[+] [-]
Вне форума [Профиль] [ЛС]

Золотой лед / Острые грани / Острое лезвие / The Cutting Edge-
Страна: США
Студия: Metro-Goldwyn-Mayer, Interscope Communications
Жанр: драма, мелодрама, комедия, спортивный
Год выпуска: 1992
Продолжительность: 01:41:38-Перевод 1: Профессиональный (двухголосый закадровый) НТВ+ | Ольга Кузнецова, Александр Гаврилин
Перевод 2: Профессиональный (многоголосый закадровый) ТНТ
Cубтитры: английские
Оригинальная аудиодорожка: английский-Режиссер: Paul Michael Glaser / Пол Майкл Глейзер
В ролях: Д.Б. Суини, Мойра Келли, Рой Дотрис, Терри О`Куинн, Дуайр Браун, Крис Бенсон, Бэрри Флэтмэн, Стив Сирс...- | Релиз: -Описание: Она — взбаламошная богатая и утонченная женщина, фигуристка без партнера, но у которой нельзя отнять стремление играть первую скрипку. Он — известный хокеист, недавно получивший травму, нахальный и честолюбивый, и большой хоккей для него закрыт навсегда. Они непохожи, у них нет ничего общего, кроме желания завоевать олимпийское золото. Теперь каждый из них — надежда и опора для другого. Объединив свои силы, они, странная пара, устремляются к мечте всей своей жизни. Их цель — медаль, но может любовь все расставит по своим местам?-Доп. информация:
- Перевод "НТВ+" записан с телеканала "MGM HD", перевод "ТНТ" записан с телеканала "Disney";
- Запись звуковых дорожек со спутниковых трансляций и их синхронизация с Blu-ray - xfiles.-Семпл: http://sendfile.su/1140912-Тип релиза: BDRemux 1080p
Контейнер: MKV
Видео: MPEG-4 AVC Video / 31997 kbps / 1920x1080p / 23,976 fps / 16:9 / High Profile 4.1
Аудио 1: Russian / Dolby Digital Audio / 2.0 / 48 kHz / 192 kbps | НТВ+
Аудио 2: Russian / Dolby Digital Audio / 2.0 / 48 kHz / 192 kbps | ТНТ
Аудио 2: English / DTS-HD Master Audio / 2.0 / 48 kHz / 2072 kbps / 24-bit (DTS Core: 2.0 / 48 kHz / 1509 kbps / 24-bit)

MediaInfo

GeneralUnique ID : 209251203861209209954299337828570370366 (0x9D6C50E18B6D810BBE5590AB500E113E)Complete name : The.Cutting.Edge.1992.1080p.BDRemux-rutracker.xfiles.mkvFormat : MatroskaFormat version : Version 4 / Version 2File size : 24.4 GiBDuration : 1h 41mnOverall bit rate mode : VariableOverall bit rate : 34.4 MbpsMovie name : The.Cutting.Edge.1992.1080p.BDRemux-rutracker.xfiles.mkvEncoded date : UTC 2015-07-27 17:58:41Writing application : mkvmerge v8.2.0 ('World of Adventure') 64bitWriting library : libebml v1.3.1 + libmatroska v1.4.2
VideoID : 1Format : AVCFormat/Info : Advanced Video CodecFormat profile : High@L4.1Format settings, CABAC : YesFormat settings, ReFrames : 4 framesCodec ID : V_MPEG4/ISO/AVCDuration : 1h 41mnBit rate mode : VariableMaximum bit rate : 38.0 MbpsWidth : 1 920 pixelsHeight : 1 080 pixelsDisplay aspect ratio : 16:9Frame rate mode : ConstantFrame rate : 23.976 fpsColor space : YUVChroma subsampling : 4:2:0Bit depth : 8 bitsScan type : ProgressiveTitle : http://rutracker.org/forum/viewtopic.php?t=5050010Language : EnglishDefault : YesForced : NoColor range : LimitedColor primaries : BT.709Transfer characteristics : BT.709Matrix coefficients : BT.709
Audio #1ID : 2Format : AC-3Format/Info : Audio Coding 3Mode extension : CM (complete main)Format settings, Endianness : BigCodec ID : A_AC3Duration : 1h 41mnBit rate mode : ConstantBit rate : 192 KbpsChannel(s) : 2 channelsChannel positions : Front: L RSampling rate : 48.0 KHzCompression mode : LossyStream size : 140 MiB (1%)Title : Двухголосый закадровый | НТВ+ | Ольга Кузнецова, Александр ГаврилинLanguage : RussianDefault : YesForced : No
Audio #2ID : 3Format : AC-3Format/Info : Audio Coding 3Mode extension : CM (complete main)Format settings, Endianness : BigCodec ID : A_AC3Duration : 1h 41mnBit rate mode : ConstantBit rate : 192 KbpsChannel(s) : 2 channelsChannel positions : Front: L RSampling rate : 48.0 KHzCompression mode : LossyStream size : 140 MiB (1%)Title : Многоголосый закадровый | ТНТLanguage : RussianDefault : NoForced : No
Audio #3ID : 4Format : DTSFormat/Info : Digital Theater SystemsFormat profile : MA / CoreMode : 16Format settings, Endianness : BigCodec ID : A_DTSDuration : 1h 41mnBit rate mode : VariableBit rate : Unknown / 1 509 KbpsChannel(s) : 2 channelsChannel positions : Front: L RSampling rate : 48.0 KHzBit depth : 24 bitsCompression mode : Lossless / LossyTitle : OriginalLanguage : EnglishDefault : NoForced : No
TextID : 5Format : UTF-8Codec ID : S_TEXT/UTF8Codec ID/Info : UTF-8 Plain TextLanguage : EnglishDefault : NoForced : No
Menu00:00:00.000 : en:00:00:00.00000:07:34.662 : en:00:07:34.66200:14:31.996 : en:00:14:31.99600:23:34.538 : en:00:23:34.53800:29:46.409 : en:00:29:46.40900:37:37.588 : en:00:37:37.58800:44:27.414 : en:00:44:27.41400:56:04.152 : en:00:56:04.15201:05:16.370 : en:01:05:16.37001:16:10.816 : en:01:16:10.81601:21:43.690 : en:01:21:43.69001:29:26.360 : en:01:29:26.360

Скриншоты


_________________
Показать сообщения:    

Текущее время: Сегодня 17:30

Часовой пояс: GMT



Вы не можете начинать темы
Вы не можете отвечать на сообщения
Вы не можете редактировать свои сообщения
Вы не можете удалять свои сообщения
Вы не можете голосовать в опросах
Вы не можете прикреплять файлы к сообщениям
Вы не можете скачивать файлы