Важное объявление!
У Нас Все раздачи мультитрекерные, при нуле пиров в релизах, можете смело вставать на закачку!
 
Автор Сообщение

HUNTER

Стаж:
4 года 4 месяца
Сообщений:
56790

Репутация: 101

[+] [-]
Вне форума [Профиль] [ЛС]

Золото Маккенны / Mackenna's Gold
-Страна: США
Жанр: мелодрама, вестерн, приключения
Год выпуска: 1969
Продолжительность: 02:08:16-Перевод 1: Профессиональный (дублированный) Мосфильм
Перевод 2: Профессиональный (многоголосый закадровый) Some Wax
Перевод 3: Профессиональный (многоголосый закадровый) Останкино
Перевод 4: Профессиональный (двухголосый закадровый) ТК Культура
Перевод 5: Авторский (одноголосый закадровый) А.Гаврилов
Перевод 6: Авторский (одноголосый закадровый) С.Визгунов
Перевод 7: Авторский (одноголосый закадровый) К.Дьяконов
Перевод 8: Авторский (одноголосый закадровый) Л.Володарский-Cубтитры: русские, английские
Оригинальная аудиодорожка: английский-Режиссер: Дж. Ли Томпсон / J. Lee Thompson-В ролях: Грегори Пек, Омар Шариф, Телли Савалас, Камилла Спарв, Эли Уоллах, Кинэн Уинн, Джули Ньюмар, Тед Кэссиди, Ли Джей Кобб, Рэймонд Мэсси, Бёрджесс Мередит, Энтони Куэйл-Описание:
Благодаря случайным обстоятельствам шериф Маккенна узнает о том, где спрятано золото древнего индейского племени. В качестве «живой карты» он становится заложником бандита Колорадо, который мечтает найти каньон «дьявольское наваждение»… К группе головорезов примыкают все новые и новые охотники за богатством, но далеко не всем суждено будет добраться до цели. Тем более вернуться живыми, ведь на пути к заветной цели их ждет неизвестность…-Доп. информация: Исходник [url=viewtopic.php?t=5273414]http://rutracker.org/forum/viewtopic.php?t=5273414[/url] thx Spielllberg-Сэмпл: Скачать-Тип релиза: BDRip 720p
Контейнер: MKV-Видео: 1 280x544 ( 2.35:1); 5 750 Kbps; 23.976 fps;
Аудио 1: Russian; AC3; 48.0 KHz; 2ch; 224 Kbps Dub Мосфильм
Аудио 2: Russian; AC3; 48.0 KHz; 6ch; 384 Kbps MVO Some Wax
Аудио 3: Russian; AC3; 48.0 KHz; 2ch; 192 Kbps MVO Останкино
Аудио 4: Russian; AC3; 48.0 KHz; 2ch; 192 Kbps DVO ТК Культура
Аудио 5: Russian; AC3; 48.0 KHz; 6ch; 448 Kbps AVO Гаврилов
Аудио 6: Russian; AC3; 48.0 KHz; 6ch; 448 Kbps AVO Визгунов
Аудио 7: Russian; AC3; 48.0 KHz; 6ch; 448 Kbps AVO Дьяконов
Аудио 8: Russian; AC3; 48.0 KHz; 2ch; 192 Kbps AVO Володарский
Аудио 9: English; AC3; 48.0 KHz; 6ch; 448 Kbps

MediaInfo

Format : Matroska
Format version : Version 4 / Version 2
File size : 7.82 GiB
Duration : 2h 8mn
Overall bit rate : 8 730 Kbps
Encoded date : UTC 2016-08-30 07:35:16
Writing application : mkvmerge v8.3.0 ('Over the Horizon') 64bit
Writing library : libebml v1.3.1 + libmatroska v1.4.2
Attachments : poster.jpg
Video
ID : 1
Format : AVC
Format/Info : Advanced Video Codec
Format profile : High@L4.1
Format settings, CABAC : Yes
Format settings, ReFrames : 12 frames
Codec ID : V_MPEG4/ISO/AVC
Duration : 2h 8mn
Bit rate : 5 750 Kbps
Width : 1 280 pixels
Height : 544 pixels
Display aspect ratio : 2.35:1
Frame rate mode : Constant
Frame rate : 23.976 (24000/1001) fps
Color space : YUV
Chroma subsampling : 4:2:0
Bit depth : 8 bits
Scan type : Progressive
Bits/(Pixel*Frame) : 0.344
Stream size : 5.15 GiB (66%)
Writing library : x264 core 148 r2638 7599210
Encoding settings : cabac=1 / ref=12 / deblock=1:-3:-3 / analyse=0x3:0x133 / me=umh / subme=10 / psy=1 / psy_rd=1.00:0.50 / mixed_ref=1 / me_range=32 / chroma_me=1 / trellis=2 / 8x8dct=1 / cqm=0 / deadzone=21,11 / fast_pskip=0 / chroma_qp_offset=-4 / threads=6 / lookahead_threads=1 / sliced_threads=0 / nr=0 / decimate=0 / interlaced=0 / bluray_compat=0 / constrained_intra=0 / bframes=10 / b_pyramid=2 / b_adapt=2 / b_bias=0 / direct=3 / weightb=1 / open_gop=0 / weightp=2 / keyint=240 / keyint_min=23 / scenecut=40 / intra_refresh=0 / rc_lookahead=60 / rc=2pass / mbtree=0 / bitrate=5750 / ratetol=1.0 / qcomp=0.65 / qpmin=0 / qpmax=69 / qpstep=4 / cplxblur=20.0 / qblur=0.5 / vbv_maxrate=62500 / vbv_bufsize=78125 / nal_hrd=none / filler=0 / ip_ratio=1.40 / pb_ratio=1.30 / aq=1:1.00
Default : Yes
Forced : No
Audio #1
ID : 2
Format : AC-3
Format/Info : Audio Coding 3
Mode extension : CM (complete main)
Format settings, Endianness : Big
Codec ID : A_AC3
Duration : 2h 8mn
Bit rate mode : Constant
Bit rate : 224 Kbps
Channel(s) : 2 channels
Channel positions : Front: L R
Sampling rate : 48.0 KHz
Frame rate : 31.250 fps (1536 spf)
Compression mode : Lossy
Stream size : 205 MiB (3%)
Title : Dub Мосфильм
Language : Russian
Default : Yes
Forced : No
Audio #2
ID : 3
Format : AC-3
Format/Info : Audio Coding 3
Mode extension : CM (complete main)
Format settings, Endianness : Big
Codec ID : A_AC3
Duration : 2h 8mn
Bit rate mode : Constant
Bit rate : 384 Kbps
Channel(s) : 6 channels
Channel positions : Front: L C R, Side: L R, LFE
Sampling rate : 48.0 KHz
Frame rate : 31.250 fps (1536 spf)
Compression mode : Lossy
Stream size : 352 MiB (4%)
Title : MVO Some Wax
Language : Russian
Default : No
Forced : No
Audio #3
ID : 4
Format : AC-3
Format/Info : Audio Coding 3
Mode extension : CM (complete main)
Format settings, Endianness : Big
Codec ID : A_AC3
Duration : 2h 8mn
Bit rate mode : Constant
Bit rate : 192 Kbps
Channel(s) : 2 channels
Channel positions : Front: L R
Sampling rate : 48.0 KHz
Frame rate : 31.250 fps (1536 spf)
Compression mode : Lossy
Stream size : 176 MiB (2%)
Title : MVO Останкино
Language : Russian
Default : No
Forced : No
Audio #4
ID : 5
Format : AC-3
Format/Info : Audio Coding 3
Mode extension : CM (complete main)
Format settings, Endianness : Big
Codec ID : A_AC3
Duration : 2h 8mn
Bit rate mode : Constant
Bit rate : 192 Kbps
Channel(s) : 2 channels
Channel positions : Front: L R
Sampling rate : 48.0 KHz
Frame rate : 31.250 fps (1536 spf)
Compression mode : Lossy
Stream size : 176 MiB (2%)
Title : DVO ТК Культура
Language : Russian
Default : No
Forced : No
Audio #5
ID : 6
Format : AC-3
Format/Info : Audio Coding 3
Mode extension : CM (complete main)
Format settings, Endianness : Big
Codec ID : A_AC3
Duration : 2h 8mn
Bit rate mode : Constant
Bit rate : 448 Kbps
Channel(s) : 6 channels
Channel positions : Front: L C R, Side: L R, LFE
Sampling rate : 48.0 KHz
Frame rate : 31.250 fps (1536 spf)
Compression mode : Lossy
Stream size : 411 MiB (5%)
Title : AVO Гаврилов
Language : Russian
Default : No
Forced : No
Audio #6
ID : 7
Format : AC-3
Format/Info : Audio Coding 3
Mode extension : CM (complete main)
Format settings, Endianness : Big
Codec ID : A_AC3
Duration : 2h 8mn
Bit rate mode : Constant
Bit rate : 448 Kbps
Channel(s) : 6 channels
Channel positions : Front: L C R, Side: L R, LFE
Sampling rate : 48.0 KHz
Frame rate : 31.250 fps (1536 spf)
Compression mode : Lossy
Stream size : 411 MiB (5%)
Title : AVO Визгунов
Language : Russian
Default : No
Forced : No
Audio #7
ID : 8
Format : AC-3
Format/Info : Audio Coding 3
Mode extension : CM (complete main)
Format settings, Endianness : Big
Codec ID : A_AC3
Duration : 2h 8mn
Bit rate mode : Constant
Bit rate : 448 Kbps
Channel(s) : 6 channels
Channel positions : Front: L C R, Side: L R, LFE
Sampling rate : 48.0 KHz
Frame rate : 31.250 fps (1536 spf)
Compression mode : Lossy
Stream size : 411 MiB (5%)
Title : AVO Дьяконов
Language : Russian
Default : No
Forced : No
Audio #8
ID : 9
Format : AC-3
Format/Info : Audio Coding 3
Mode extension : CM (complete main)
Format settings, Endianness : Big
Codec ID : A_AC3
Duration : 2h 8mn
Bit rate mode : Constant
Bit rate : 192 Kbps
Channel(s) : 2 channels
Channel positions : Front: L R
Sampling rate : 48.0 KHz
Frame rate : 31.250 fps (1536 spf)
Compression mode : Lossy
Stream size : 176 MiB (2%)
Title : AVO Володарский
Language : Russian
Default : No
Forced : No
Audio #9
ID : 10
Format : AC-3
Format/Info : Audio Coding 3
Mode extension : CM (complete main)
Format settings, Endianness : Big
Codec ID : A_AC3
Duration : 2h 8mn
Bit rate mode : Constant
Bit rate : 448 Kbps
Channel(s) : 6 channels
Channel positions : Front: L C R, Side: L R, LFE
Sampling rate : 48.0 KHz
Frame rate : 31.250 fps (1536 spf)
Compression mode : Lossy
Stream size : 411 MiB (5%)
Language : English
Default : No
Forced : No
Text #1
ID : 11
Format : UTF-8
Codec ID : S_TEXT/UTF8
Codec ID/Info : UTF-8 Plain Text
Duration : 2h 5mn
Bit rate : 52 bps
Count of elements : 890
Stream size : 48.0 KiB (0%)
Language : Russian
Default : No
Forced : No
Text #2
ID : 12
Format : UTF-8
Codec ID : S_TEXT/UTF8
Codec ID/Info : UTF-8 Plain Text
Duration : 2h 4mn
Bit rate : 32 bps
Count of elements : 759
Stream size : 29.8 KiB (0%)
Language : English
Default : No
Forced : No

Source vs Encode




Скриншоты


_________________
Показать сообщения:    

Текущее время: Сегодня 16:05

Часовой пояс: GMT



Вы не можете начинать темы
Вы не можете отвечать на сообщения
Вы не можете редактировать свои сообщения
Вы не можете удалять свои сообщения
Вы не можете голосовать в опросах
Вы не можете прикреплять файлы к сообщениям
Вы не можете скачивать файлы