Важное объявление!
У Нас Все раздачи мультитрекерные, при нуле пиров в релизах, можете смело вставать на закачку!
 
Автор Сообщение

Shalun

Стаж:
4 года 4 месяца
Сообщений:
802

Репутация: 123

[+] [-]
Вне форума [Профиль] [ЛС]

-Зодиак / Zodiac-Информация о фильме
Название: Зодиак
Оригинальное название: Zodiac
Год выхода: 2007
Жанр: триллер, драма, криминал, детектив
Режиссер: Дэвид Финчер
В ролях: Джейк Джилленхол, Марк Руффало, Энтони Эдвардс, Роберт Дауни мл., Клоэ Севиньи, Джон Кэрролл Линч, Брайан Кокс, Элиас Котеас, Дермот Малруни, Донал Лог
О фильме: На протяжении почти 25 лет он держал в страхе весь Сан-Франциско. Общаясь с властями через репортеров, он в своих письмах и шифрах жестоко упрекал полицию в бездействии. «Зодиак» то пропадал на время, то появлялся вновь. Порой полиция начинала сомневаться в том, что за очередным убийством стоял именно тот, за кем они так тщетно охотились, а не какой-нибудь имитатор. Однако и почерк убийств и письма репортерам говорили о том, что «Зодиак» еще не отошел от дел.

Выпущено: Paramount Pictures, Warner Bros.
Продолжительность: 02:42:35
Перевод: Дублированный (лицензия)
Файл
Кодек: x264
Качество: BDRip (источник: Blu-ray Disc)
Видео: 1920x800 (2,40:1), 23.976 fps, 5555 kbps
Аудио #1: AC-3, 6 ch, 640 kbps (Rus)
Аудио #2: AC-3, 6 ch, 640 kbps (Eng)
Субтитры: Русские (форс,полные), Английские
Скачать: сэмпл
Скриншоты

MI

Общее
Уникальный идентификатор : 210383955985305714271179976832059701733 (0x9E4679DF669664CC9602436EFCD3F9E5)
Полное имя : Zodiac.2007.BDRip.1080p.Rus.Eng.mkv
Формат : Matroska
Версия формата : Version 2
Размер файла : 7,76 Гбайт
Продолжительность : 2 ч. 42 м.
Общий поток : 6836 Кбит/сек
Название фильма : Зодиак / Zodiac (2007) | Director's Cut
Дата кодирования : UTC 2013-06-02 12:12:27
Программа кодирования : mkvmerge v5.8.0 ('No Sleep / Pillow') built on Sep 2 2012 15:37:04
Библиотека кодирования : libebml v1.2.3 + libmatroska v1.3.0
Видео
Идентификатор : 1
Формат : AVC
Формат/Информация : Advanced Video Codec
Профиль формата : High@L4.1
Параметр CABAC формата : Да
Параметр ReFrames формата : 5 кадров
Идентификатор кодека : V_MPEG4/ISO/AVC
Продолжительность : 2 ч. 42 м.
Битрейт : 5555 Кбит/сек
Ширина : 1920 пикселей
Высота : 800 пикселей
Соотношение сторон : 2,40:1
Частота кадров : 23,976 кадра/сек
Цветовое пространство : YUV
Субдискретизация насыщенности : 4:2:0
Битовая глубина : 8 бит
Тип развёртки : Прогрессивная
Бит/(Пиксели*Кадры) : 0.151
Размер потока : 6,16 Гбайт (79%)
Заголовок : Release by AlexKa
Библиотека кодирования : x264 core 133 r2334 a3ac64b
Настройки программы : cabac=1 / ref=5 / deblock=1:-3:-3 / analyse=0x3:0x133 / me=umh / subme=11 / psy=1 / psy_rd=1.00:0.00 / mixed_ref=1 / me_range=32 / chroma_me=1 / trellis=2 / 8x8dct=1 / cqm=0 / deadzone=21,11 / fast_pskip=0 / chroma_qp_offset=-2 / threads=12 / lookahead_threads=1 / sliced_threads=0 / nr=0 / decimate=0 / interlaced=0 / bluray_compat=0 / constrained_intra=0 / bframes=6 / b_pyramid=2 / b_adapt=2 / b_bias=0 / direct=3 / weightb=1 / open_gop=0 / weightp=2 / keyint=240 / keyint_min=23 / scenecut=40 / intra_refresh=0 / rc_lookahead=80 / rc=2pass / mbtree=1 / bitrate=5555 / ratetol=1.0 / qcomp=0.60 / qpmin=0 / qpmax=69 / qpstep=4 / cplxblur=20.0 / qblur=0.5 / ip_ratio=1.40 / aq=1:1.00
Язык : English
Аудио #1
Идентификатор : 2
Формат : AC-3
Формат/Информация : Audio Coding 3
Расширение режима : CM (complete main)
Идентификатор кодека : A_AC3
Продолжительность : 2 ч. 42 м.
Вид битрейта : Постоянный
Битрейт : 640 Кбит/сек
Каналы : 6 каналов
Расположение каналов : Front: L C R, Side: L R, LFE
Частота : 48,0 КГц
Битовая глубина : 16 бит
Метод сжатия : С потерями
Размер потока : 744 Мбайт (9%)
Заголовок : Rus
Язык : Russian
Аудио #2
Идентификатор : 3
Формат : AC-3
Формат/Информация : Audio Coding 3
Расширение режима : CM (complete main)
Идентификатор кодека : A_AC3
Продолжительность : 2 ч. 42 м.
Вид битрейта : Постоянный
Битрейт : 640 Кбит/сек
Каналы : 6 каналов
Расположение каналов : Front: L C R, Side: L R, LFE
Частота : 48,0 КГц
Битовая глубина : 16 бит
Метод сжатия : С потерями
Размер потока : 744 Мбайт (9%)
Заголовок : Eng
Язык : English
Текст #1
Идентификатор : 4
Формат : UTF-8
Идентификатор кодека : S_TEXT/UTF8
Идентификатор кодека/Информация : UTF-8 Plain Text
Заголовок : Rus forced
Язык : Russian
Текст #2
Идентификатор : 5
Формат : UTF-8
Идентификатор кодека : S_TEXT/UTF8
Идентификатор кодека/Информация : UTF-8 Plain Text
Заголовок : Rus
Язык : Russian
Текст #3
Идентификатор : 6
Формат : UTF-8
Идентификатор кодека : S_TEXT/UTF8
Идентификатор кодека/Информация : UTF-8 Plain Text
Заголовок : Eng
Язык : English
Меню
00:00:00.000 : :Chapter 01
00:06:19.212 : :Chapter 02
00:14:27.366 : :Chapter 03
00:17:39.058 : :Chapter 04
00:24:19.458 : :Chapter 05
00:31:34.225 : :Chapter 06
00:36:32.523 : :Chapter 07
00:42:18.369 : :Chapter 08
00:49:14.618 : :Chapter 09
00:55:51.014 : :Chapter 10
01:01:02.158 : :Chapter 11
01:06:51.506 : :Chapter 12
01:12:12.161 : :Chapter 13
01:17:48.664 : :Chapter 14
01:21:38.727 : :Chapter 15
01:34:37.171 : :Chapter 16
01:36:57.978 : :Chapter 17
01:41:54.274 : :Chapter 18
01:47:57.637 : :Chapter 19
01:56:02.455 : :Chapter 20
02:01:21.107 : :Chapter 21
02:07:19.965 : :Chapter 22
02:14:15.379 : :Chapter 23
02:21:36.154 : :Chapter 24
02:28:03.374 : :Chapter 25
02:34:35.432 : :Chapter 26
02:39:27.391 : :Chapter 27
02:42:36.495 : :Chapter 28

x264

x264 [info]: frame I:2013 Avg QP:13.56 size:225957
x264 [info]: frame P:44764 Avg QP:16.49 size: 75103
x264 [info]: frame B:187121 Avg QP:18.64 size: 15797
-

_________________
Показать сообщения:    

Текущее время: Сегодня 02:20

Часовой пояс: GMT



Вы не можете начинать темы
Вы не можете отвечать на сообщения
Вы не можете редактировать свои сообщения
Вы не можете удалять свои сообщения
Вы не можете голосовать в опросах
Вы не можете прикреплять файлы к сообщениям
Вы не можете скачивать файлы