Важное объявление!
У Нас Все раздачи мультитрекерные, при нуле пиров в релизах, можете смело вставать на закачку!
 
Автор Сообщение

HUNTER

Стаж:
4 года 4 месяца
Сообщений:
56772

Репутация: 101

[+] [-]
Вне форума [Профиль] [ЛС]

Зловещие мертвецы 2 / Evil Dead II-
Год выпуска: 1987
Выпущено: США
Жанр: ужасы, фэнтези
Продолжительность: 01:24:39
Перевод: Профессиональный (многоголосый, закадровый) CP-Digital
+ Профессиональный (многоголосый, закадровый) Киномания
+ Профессиональный (двухголосый, закадровый) П.Гланц и И.Королева
+ Авторский одноголосый А.Михалев
+ Авторский одноголосый Ю.Сербин
+ Авторский одноголосый А.Гаврилов
+ Одноголосый закадровый Зереницын/Белов
+ Одноголосый закадровый Неизвестный "Древний"
+ Одноголосый закадровый Неизвестный с немецкого
Оригинальная звуковая дорожка: English
Субтитры: Russian, English-Режиссер: Сэм Рэйми / Sam Raimi
В ролях: Брюс Кэмпбелл, Сара Берри, Дэн Хикс, Кэсси ДеПайва, Тед Рейми, Дениз Бикслер, Ричард Домайер, Джон Пикс, Лу Хэнкок, Сноуи Уинтерс
О фильме: Эш возвращается в дом в лесу. Его подружка одержима демонами и больше не принадлежит себе. Эш в одиночку вынужден опять сражаться со злом.
SbR!
Релиз:
Формат: MKV
Видео: 1920x1040 at 23.976 fps, x264@L4.1, ~18668 kbps
Аудио #01: Russian: 48 kHz, AC3, 3/2 (L,C,R,l,r) + LFE ch, ~448 kbps avg |CP Digital|
Аудио #02: Russian: 48 kHz, AC3, 3/2 (L,C,R,l,r) + LFE ch, ~384 kbps avg |Киномания|
Аудио #03: Russian: 48 kHz, DTS, 3/2 (L,C,R,l,r) ch, ~1509 kbps avg |П. Гланц и И. Королёва|
Аудио #04: Russian: 48 kHz, DTS, 3/2 (L,C,R,l,r) ch, ~1509 kbps avg |А. Михалёв|
Аудио #05: Russian: 48 kHz, DTS, 3/2 (L,C,R,l,r) ch, ~1509 kbps avg |Ю. Сербин|
Аудио #06: Russian: 48 kHz, AC3, 2/0 (L,R) ch, ~192 kbps avg |А. Гаврилов|
Аудио #07: Russian: 48 kHz, AC3, 2/0 (L,R) ch, ~192 kbps avg |Зереницын/Белов|
Аудио #08: Russian: 48 kHz, AC3, 2/0 (L,R) ch, ~192 kbps avg |Неизвестный "Древний"|
Аудио #09: Russian: 48 kHz, AC3, 2/0 (L,R) ch, ~192 kbps avg |Неизвестный с немецкого|
Аудио #10: English: 48 kHz, DTS, 3/2 (L,C,R,l,r) ch, ~1509 kbps avg
Аудио #11: Ukrainian: 48 kHz, AC3, 2/0 (L,R) ch, ~192 kbps avg |Многоголосый закадровый, 2+2|
Семпл-

Source vs Encode





-

mInfo

Формат : Matroska
Версия формата : Version 4 / Version 2
Размер файла : 15,6 Гбайт
Продолжительность : 1 ч. 24 м.
Общий поток : 26,4 Мбит/сек
Название фильма : Evil Dead II (1987) - Release for HDCLUB by SbR
Дата кодирования : UTC 2014-08-23 11:15:27
Программа кодирования : mkvmerge v7.1.0 ('Good Love') 64bit built on Jul 27 2014 13:06:55
Библиотека кодирования : libebml v1.3.0 + libmatroska v1.4.1
Attachment : Yes / Yes
Видео
Идентификатор : 1
Формат : AVC
Формат/Информация : Advanced Video Codec
Профиль формата : High@L4.1
Параметр CABAC формата : Да
Параметр ReFrames формата : 4 кадра
Идентификатор кодека : V_MPEG4/ISO/AVC
Продолжительность : 1 ч. 24 м.
Битрейт : 18,0 Мбит/сек
Ширина : 1920 пикселей
Высота : 1040 пикселей
Соотношение сторон : 1,85:1
Режим частоты кадров : Постоянный
Частота кадров : 23,976 кадра/сек
Цветовое пространство : YUV
Субдискретизация насыщенности : 4:2:0
Битовая глубина : 8 бит
Тип развёртки : Прогрессивная
Бит/(Пиксели*Кадры) : 0.377
Размер потока : 10,7 Гбайт (68%)
Заголовок : Release for HDCLUB
Библиотека кодирования : x264 core 142 r2431+42 c69a006 tMod [8-bit@4:2:0 X86_64]
Настройки программы : cabac=1 / ref=4 / deblock=1:-2:-2 / analyse=0x3:0x133 / me=umh / subme=11 / psy=1 / fade_compensate=0.00 / psy_rd=1.00:0.00 / mixed_ref=1 / me_range=32 / chroma_me=1 / trellis=2 / 8x8dct=1 / cqm=0 / deadzone=21,11 / fast_pskip=1 / chroma_qp_offset=-2 / threads=12 / lookahead_threads=2 / sliced_threads=0 / nr=0 / decimate=1 / interlaced=0 / bluray_compat=0 / constrained_intra=0 / fgo=0 / bframes=8 / b_pyramid=2 / b_adapt=2 / b_bias=0 / direct=1 / weightb=1 / open_gop=0 / weightp=2 / keyint=250 / keyint_min=23 / scenecut=40 / intra_refresh=0 / rc_lookahead=60 / rc=crf / mbtree=0 / crf=18.0000 / qcomp=0.70 / qpmin=0:0:0 / qpmax=69:69:69 / qpstep=4 / vbv_maxrate=62500 / vbv_bufsize=78125 / crf_max=0.0 / nal_hrd=none / filler=0 / ip_ratio=1.40 / pb_ratio=1.30 / aq=1:0.80 / aq-sensitivity=10.00 / aq-factor=1.00:1.00:1.00 / aq2=0 / aq3=0
Язык : English
Default : Да
Forced : Нет
Основные цвета : BT.709
Характеристики трансфера : BT.709
Коэффициенты матрицы : BT.709
Аудио #1
Идентификатор : 2
Формат : AC-3
Формат/Информация : Audio Coding 3
Расширение режима : CM (complete main)
Параметр Endianness формата : Big
Идентификатор кодека : A_AC3
Продолжительность : 1 ч. 24 м.
Вид битрейта : Постоянный
Битрейт : 448 Кбит/сек
Каналы : 6 каналов
Расположение каналов : Front: L C R, Side: L R, LFE
Частота : 48,0 КГц
Битовая глубина : 16 бит
Метод сжатия : С потерями
Размер потока : 271 Мбайт (2%)
Заголовок : MVO, CP Digital
Язык : Russian
Default : Да
Forced : Нет
Аудио #2
Идентификатор : 3
Формат : AC-3
Формат/Информация : Audio Coding 3
Расширение режима : CM (complete main)
Параметр Endianness формата : Big
Идентификатор кодека : A_AC3
Продолжительность : 1 ч. 24 м.
Вид битрейта : Постоянный
Битрейт : 384 Кбит/сек
Каналы : 6 каналов
Расположение каналов : Front: L C R, Side: L R, LFE
Частота : 48,0 КГц
Битовая глубина : 16 бит
Метод сжатия : С потерями
Размер потока : 233 Мбайт (1%)
Заголовок : MVO, Киномания
Язык : Russian
Default : Нет
Forced : Нет
Аудио #3
Идентификатор : 4
Формат : DTS
Формат/Информация : Digital Theater Systems
Режим : 16
Параметр Endianness формата : Big
Идентификатор кодека : A_DTS
Продолжительность : 1 ч. 24 м.
Вид битрейта : Постоянный
Битрейт : 1509 Кбит/сек
Каналы : 6 каналов
Расположение каналов : Front: L C R, Side: L R, LFE
Частота : 48,0 КГц
Битовая глубина : 24 бит
Метод сжатия : С потерями
Размер потока : 914 Мбайт (6%)
Заголовок : DVO, Гланц и Королёва
Язык : Russian
Default : Нет
Forced : Нет
Аудио #4
Идентификатор : 5
Формат : DTS
Формат/Информация : Digital Theater Systems
Режим : 16
Параметр Endianness формата : Big
Идентификатор кодека : A_DTS
Продолжительность : 1 ч. 24 м.
Вид битрейта : Постоянный
Битрейт : 1509 Кбит/сек
Каналы : 6 каналов
Расположение каналов : Front: L C R, Side: L R, LFE
Частота : 48,0 КГц
Битовая глубина : 24 бит
Метод сжатия : С потерями
Размер потока : 914 Мбайт (6%)
Заголовок : VO, Михалёв
Язык : Russian
Default : Нет
Forced : Нет
Аудио #5
Идентификатор : 6
Формат : DTS
Формат/Информация : Digital Theater Systems
Режим : 16
Параметр Endianness формата : Big
Идентификатор кодека : A_DTS
Продолжительность : 1 ч. 24 м.
Вид битрейта : Постоянный
Битрейт : 1509 Кбит/сек
Каналы : 6 каналов
Расположение каналов : Front: L C R, Side: L R, LFE
Частота : 48,0 КГц
Битовая глубина : 24 бит
Метод сжатия : С потерями
Размер потока : 914 Мбайт (6%)
Заголовок : VO, Сербин
Язык : Russian
Default : Нет
Forced : Нет
Аудио #6
Идентификатор : 7
Формат : AC-3
Формат/Информация : Audio Coding 3
Расширение режима : CM (complete main)
Параметр Endianness формата : Big
Идентификатор кодека : A_AC3
Продолжительность : 1 ч. 24 м.
Вид битрейта : Постоянный
Битрейт : 192 Кбит/сек
Каналы : 2 канала
Расположение каналов : Front: L R
Частота : 48,0 КГц
Битовая глубина : 16 бит
Метод сжатия : С потерями
Размер потока : 116 Мбайт (1%)
Заголовок : VO, Гаврилов
Язык : Russian
Default : Нет
Forced : Нет
Аудио #7
Идентификатор : 8
Формат : AC-3
Формат/Информация : Audio Coding 3
Расширение режима : CM (complete main)
Параметр Endianness формата : Big
Идентификатор кодека : A_AC3
Продолжительность : 1 ч. 24 м.
Вид битрейта : Постоянный
Битрейт : 192 Кбит/сек
Каналы : 2 канала
Расположение каналов : Front: L R
Частота : 48,0 КГц
Битовая глубина : 16 бит
Метод сжатия : С потерями
Размер потока : 116 Мбайт (1%)
Заголовок : VO, Зереницын/Белов
Язык : Russian
Default : Нет
Forced : Нет
Аудио #8
Идентификатор : 9
Формат : AC-3
Формат/Информация : Audio Coding 3
Расширение режима : CM (complete main)
Параметр Endianness формата : Big
Идентификатор кодека : A_AC3
Продолжительность : 1 ч. 24 м.
Вид битрейта : Постоянный
Битрейт : 192 Кбит/сек
Каналы : 2 канала
Расположение каналов : Front: L R
Частота : 48,0 КГц
Битовая глубина : 16 бит
Метод сжатия : С потерями
Размер потока : 116 Мбайт (1%)
Заголовок : VO, Неизвестный "Древний"
Язык : Russian
Default : Нет
Forced : Нет
Аудио #9
Идентификатор : 10
Формат : AC-3
Формат/Информация : Audio Coding 3
Расширение режима : CM (complete main)
Параметр Endianness формата : Big
Идентификатор кодека : A_AC3
Продолжительность : 1 ч. 24 м.
Вид битрейта : Постоянный
Битрейт : 192 Кбит/сек
Каналы : 2 канала
Расположение каналов : Front: L R
Частота : 48,0 КГц
Битовая глубина : 16 бит
Метод сжатия : С потерями
Размер потока : 116 Мбайт (1%)
Заголовок : VO, Неизвестный с немецкого
Язык : Russian
Default : Нет
Forced : Нет
Аудио #10
Идентификатор : 11
Формат : DTS
Формат/Информация : Digital Theater Systems
Режим : 16
Параметр Endianness формата : Big
Идентификатор кодека : A_DTS
Продолжительность : 1 ч. 24 м.
Вид битрейта : Постоянный
Битрейт : 1509 Кбит/сек
Каналы : 6 каналов
Расположение каналов : Front: L C R, Side: L R, LFE
Частота : 48,0 КГц
Битовая глубина : 24 бит
Метод сжатия : С потерями
Размер потока : 914 Мбайт (6%)
Язык : English
Default : Нет
Forced : Нет
Аудио #11
Идентификатор : 12
Формат : AC-3
Формат/Информация : Audio Coding 3
Расширение режима : CM (complete main)
Параметр Endianness формата : Big
Идентификатор кодека : A_AC3
Продолжительность : 1 ч. 24 м.
Вид битрейта : Постоянный
Битрейт : 192 Кбит/сек
Каналы : 2 канала
Расположение каналов : Front: L R
Частота : 48,0 КГц
Битовая глубина : 16 бит
Метод сжатия : С потерями
Размер потока : 116 Мбайт (1%)
Заголовок : MVO, 2+2
Язык : Ukrainian
Default : Нет
Forced : Нет
Текст #1
Идентификатор : 13
Формат : UTF-8
Идентификатор кодека : S_TEXT/UTF8
Идентификатор кодека/Информация : UTF-8 Plain Text
Язык : Russian
Default : Нет
Forced : Нет
Текст #2
Идентификатор : 14
Формат : UTF-8
Идентификатор кодека : S_TEXT/UTF8
Идентификатор кодека/Информация : UTF-8 Plain Text
Язык : English
Default : Нет
Forced : Нет
Меню
00:00:00.000 : en:Program Start/the Book
00:01:57.242 : en:Raising Hell
00:05:25.325 : en:Possessed
00:06:39.232 : en:The Ride
00:10:37.595 : en:No Escape
00:17:24.084 : en:Danse Macabre
00:20:19.635 : en:The Tool Shed
00:22:36.229 : en:Off His Rocker
00:28:20.824 : en:Hell Hand
00:34:05.043 : en:Laughing Stock
00:35:36.551 : en:Blood Simple
00:40:10.366 : en:Henrietta
00:42:29.171 : en:Dead By Dawn
00:46:21.779 : en:Things From Beyond
00:51:59.157 : en:The Woods
00:53:39.007 : en:Pages of Prophecy
00:58:41.434 : en:Ash, the Demon
01:06:21.268 : en:Battle Gear
01:07:24.040 : en:The Cellar
01:11:36.000 : en:Showdown
01:14:19.955 : en:The Evil Summoned
01:16:38.510 : en:The Rift
01:18:56.606 : en:Hero From the Sky
01:20:55.851 : en:End Credits
-

_________________
Показать сообщения:    

Текущее время: Сегодня 09:44

Часовой пояс: GMT



Вы не можете начинать темы
Вы не можете отвечать на сообщения
Вы не можете редактировать свои сообщения
Вы не можете удалять свои сообщения
Вы не можете голосовать в опросах
Вы не можете прикреплять файлы к сообщениям
Вы не можете скачивать файлы