Важное объявление!
У Нас Все раздачи мультитрекерные, при нуле пиров в релизах, можете смело вставать на закачку!
 
Автор Сообщение

HUNTER

Стаж:
4 года 4 месяца
Сообщений:
56839

Репутация: 101

[+] [-]
Вне форума [Профиль] [ЛС]

Зимняя вишня-
Год выпуска: 1985
Страна: СССР
Жанр: драма, мелодрама, комедия
Продолжительность: 01:28:12
Cубтитры: нет-Режиссер: Игорь Масленников
В ролях: Елена Сафонова, Нина Русланова, Лариса Удовиченко, Виталий Соломин, Александр Леньков, Ивар Калныньш, Сергей Паршин, Алла Осипенко, В. Беляев, Валерий Караваев
Описание: Молодая интеллигентная женщина одна воспитывает маленького сына. Она любит и любима, но избранник женат и не решается оставить семью. Неожиданно в ее жизнь входит новый знакомый: красивый, внимательный, респектабельный. Но сердцу не прикажешь...-Релиз: by xmad
Формат: MKV
Видео: 1488x1080 at 23.976 fps, x264@L4.1, crf, ~13200 kbps avg
Аудио: Russian: 48 kHz, DTS, 3/2 (L,C,R,l,r) + LFE ch, ~1536 kbps avg
Семпл-

Source~Encode




-

mInfo


Format : Matroska
Format version : Version 4 / Version 2
File size : 9.27 GiB
Duration : 1h 28mn
Overall bit rate : 15.1 Mbps
Movie name : Zimnyaya vishnya (1985) - Release for HDCLUB
Encoded date : UTC 2013-05-26 05:59:48
Writing application : mkvmerge v6.1.0 ('Old Devil') built on Mar 2 2013 14:32:37
Writing library : libebml v1.3.0 + libmatroska v1.4.0
Video
ID : 1
Format : AVC
Format/Info : Advanced Video Codec
Format profile : High@L4.1
Format settings, CABAC : Yes
Format settings, ReFrames : 4 frames
Codec ID : V_MPEG4/ISO/AVC
Duration : 1h 28mn
Bit rate : 13.2 Mbps
Width : 1 488 pixels
Height : 1 080 pixels
Display aspect ratio : 1.378
Frame rate : 23.976 fps
Color space : YUV
Chroma subsampling : 4:2:0
Bit depth : 8 bits
Scan type : Progressive
Bits/(Pixel*Frame) : 0.344
Stream size : 8.16 GiB (88%)
Title : Release for HDCLUB
Writing library : x264 core 130 r2273 b3065e6
Encoding settings : cabac=1 / ref=4 / deblock=1:-3:-3 / analyse=0x3:0x133 / me=umh / subme=11 / psy=1 / psy_rd=1.10:0.00 / mixed_ref=1 / me_range=48 / chroma_me=1 / trellis=2 / 8x8dct=1 / cqm=0 / deadzone=21,11 / fast_pskip=0 / chroma_qp_offset=-2 / threads=12 / lookahead_threads=2 / sliced_threads=0 / nr=0 / decimate=1 / interlaced=0 / bluray_compat=0 / constrained_intra=0 / bframes=7 / b_pyramid=2 / b_adapt=2 / b_bias=0 / direct=3 / weightb=1 / open_gop=0 / weightp=2 / keyint=240 / keyint_min=24 / scenecut=40 / intra_refresh=0 / rc_lookahead=60 / rc=crf / mbtree=0 / crf=18.0 / qcomp=0.60 / qpmin=0 / qpmax=69 / qpstep=4 / vbv_maxrate=62500 / vbv_bufsize=78125 / crf_max=0.0 / nal_hrd=none / ip_ratio=1.40 / pb_ratio=1.30 / aq=1:0.80
Language : Russian
Default : Yes
Forced : No
Color primaries : BT.709-5, BT.1361, IEC 61966-2-4, SMPTE RP177
Transfer characteristics : BT.709-5, BT.1361
Matrix coefficients : BT.709-5, BT.1361, IEC 61966-2-4 709, SMPTE RP177
Audio
ID : 2
Format : DTS
Format/Info : Digital Theater Systems
Codec ID : A_DTS
Duration : 1h 28mn
Bit rate mode : Constant
Bit rate : 1 510 Kbps
Channel(s) : 6 channels
Channel positions : Front: L C R, Side: L R, LFE
Sampling rate : 48.0 KHz
Bit depth : 24 bits
Compression mode : Lossy
Stream size : 953 MiB (10%)
Title : (DTS 5.1 @ 1510 kbps - Original)
Language : Russian
Default : Yes
Forced : No
Menu
00:00:00.000 : :Chapter 01
00:05:15.356 : :Chapter 02
00:12:15.151 : :Chapter 03
00:16:42.793 : :Chapter 04
00:23:58.645 : :Chapter 05
00:29:57.420 : :Chapter 06
00:35:40.513 : :Chapter 07
00:41:21.353 : :Chapter 08
00:50:13.468 : :Chapter 09
00:55:30.368 : :Chapter 10
01:02:13.896 : :Chapter 11
01:06:47.753 : :Chapter 12
01:14:03.939 : :Chapter 13
01:20:04.674 : :Chapter 14
01:26:49.204 : :Chapter 15
01:28:12.078 : :Chapter 16

-

log


frame I:670 Avg QP:17.23 size:205467
frame P:22663 Avg QP:18.43 size:136635
frame B:103565 Avg QP:20.78 size: 55267
consecutive B-frames: 0.8% 0.4% 2.4% 4.3% 10.6% 73.4% 8.0% 0.1%
-

_________________
Показать сообщения:    

Текущее время: Сегодня 00:56

Часовой пояс: GMT



Вы не можете начинать темы
Вы не можете отвечать на сообщения
Вы не можете редактировать свои сообщения
Вы не можете удалять свои сообщения
Вы не можете голосовать в опросах
Вы не можете прикреплять файлы к сообщениям
Вы не можете скачивать файлы