Важное объявление!
У Нас Все раздачи мультитрекерные, при нуле пиров в релизах, можете смело вставать на закачку!
 
Автор Сообщение

HUNTER

Стаж:
4 года 4 месяца
Сообщений:
56783

Репутация: 101

[+] [-]
Вне форума [Профиль] [ЛС]

Земля Чато / Chato's Land
Страна: Великобритания
Жанр: вестерн
Год выпуска: 1972
Продолжительность: 01:40:29
Перевод 1: Профессиональный (многоголосый закадровый) - Somewax
Перевод 2: Профессиональный (двухголосый закадровый) - НТВ+
Cубтитры: английские (Full, SDH)
Оригинальная аудиодорожка: английский-Режиссер: Майкл Уиннер / Michael Winner-В ролях: Чарльз Бронсон, Джек Пэлэнс, Джеймс Уитмор, Саймон Оуклэнд, Ральф Уэйт, Ричард Джордэн, Виктор Френч, Соня Рэнгэн, Уильям Уотсон, Родди МакМиллэн, Пол Янг, Ричард Бэйсхарт-Описание: Индеец-полукровка Пардон Чато в целях самообороны убивает шерифа небольшого городка и пускается в бега. Его преследует целый отряд, возглавляемый бывшим конфедератом, капитаном Куинси Уитмором. Но отыскать индейца в прериях - задача просто невыполнимая. Охотники берут в плен жену Чато и насилуют её, а также убивают индейца, являющегося членом его семьи. После такого поворота событий Чато превращается в яростного и беспощадного мстителя…-Релиз:
| Рип от SbR-Качество видео: BDRip
Формат видео: MKV
Видео: 1280x694 at 23.976 fps, x264@L4.1, ~11299 kbps avg
Аудио: Russian: 48 kHz, AC3, 2/0 (L,R) ch, ~192 kbps avg |Многоголосый закадровый, Somewax|
Аудио 2: Russian: 48 kHz, AC3, 2/0 (L,R) ch, ~192 kbps avg |Двухголосый закадровый, НТВ+|
Аудио 3: English: 48 kHz, FLAC 1.0, ~222 kbps avg-Скачать сэмпл
Цитата:
Цитата:

  • Сохранены оригинальные чаптеры как на Blu-ray.

MediaInfo

Код:
Format                      : Matroska
Format version              : Version 4 / Version 2
File size                   : 8.36 GiB
Duration                    : 1h 40mn
Overall bit rate mode       : Variable
Overall bit rate            : 11.9 Mbps
Encoded date                : UTC 2016-07-27 20:16:09
Writing application         : mkvmerge v9.3.1 ('Mask Machine') 32bit
Writing library             : libebml v1.3.4 + libmatroska v1.4.5
Cover                       : Yes
Attachments                 : cover.jpg
Video
ID                          : 1
Format                      : AVC
Format/Info                 : Advanced Video Codec
Format profile              : High@L4.1
Format settings, CABAC      : Yes
Format settings, ReFrames   : 9 frames
Codec ID                    : V_MPEG4/ISO/AVC
Duration                    : 1h 40mn
Bit rate                    : 11.3 Mbps
Width                       : 1 280 pixels
Height                      : 694 pixels
Display aspect ratio        : 1.85:1
Frame rate mode             : Constant
Frame rate                  : 23.976 (23976/1000) fps
Color space                 : YUV
Chroma subsampling          : 4:2:0
Bit depth                   : 8 bits
Scan type                   : Progressive
Bits/(Pixel*Frame)          : 0.531
Stream size                 : 7.93 GiB (95%)
Writing library             : x264 core 148 r2705+54 9f484c1 t_mod_Custom [8-bit@all X86_64]
Encoding settings           : cabac=1 / ref=9 / deblock=1:-3:-3 / analyse=0x3:0x133 / me=umh / subme=10 / psy=1 / fade_compensate=0.00 / psy_rd=1.10:0.05 / mixed_ref=1 / me_range=32 / chroma_me=1 / trellis=2 / 8x8dct=1 / cqm=0 / deadzone=21,11 / fast_pskip=0 / chroma_qp_offset=-3 / threads=6 / lookahead_threads=1 / sliced_threads=0 / nr=0 / decimate=1 / interlaced=0 / bluray_compat=0 / constrained_intra=0 / fgo=0 / bframes=8 / b_pyramid=2 / b_adapt=2 / b_bias=0 / direct=3 / weightb=1 / open_gop=0 / weightp=2 / keyint=250 / keyint_min=23 / scenecut=40 / intra_refresh=0 / rc=2pass / mbtree=0 / bitrate=11300 / ratetol=1.0 / qcomp=0.60 / qpmin=0:0:0 / qpmax=69:69:69 / qpstep=4 / cplxblur=20.0 / qblur=0.5 / ip_ratio=1.20 / pb_ratio=1.10 / aq=3:0.65 / aq-sensitivity=10.00 / aq-factor=1.00:1.00:1.00 / aq2=1:0.60 / aq2-sensitivity=15.00 / aq2-factor=1.00:1.00:1.00 / aq3=1:[0.50:0.50]:[0.50:0.50]:[0.50:0.50]:[0.50:0.50] / aq3-sensitivity=10.00 / aq3-factor=[1.00:1.00]:[1.00:1.00]:[1.00:1.00] / aq3-boundary=192:64:24
Language                    : English
Default                     : Yes
Forced                      : No
Color range                 : Limited
Matrix coefficients         : BT.709
Audio #1
ID                          : 2
Format                      : AC-3
Format/Info                 : Audio Coding 3
Mode extension              : CM (complete main)
Format settings, Endianness : Big
Codec ID                    : A_AC3
Duration                    : 1h 40mn
Bit rate mode               : Constant
Bit rate                    : 192 Kbps
Channel(s)                  : 2 channels
Channel positions           : Front: L R
Sampling rate               : 48.0 KHz
Frame rate                  : 31.250 fps (1536 spf)
Compression mode            : Lossy
Stream size                 : 138 MiB (2%)
Title                       : Многоголосый закадровый, Somewax
Language                    : Russian
Default                     : Yes
Forced                      : No
Audio #2
ID                          : 3
Format                      : AC-3
Format/Info                 : Audio Coding 3
Mode extension              : CM (complete main)
Format settings, Endianness : Big
Codec ID                    : A_AC3
Duration                    : 1h 40mn
Bit rate mode               : Constant
Bit rate                    : 192 Kbps
Channel(s)                  : 2 channels
Channel positions           : Front: L R
Sampling rate               : 48.0 KHz
Frame rate                  : 31.250 fps (1536 spf)
Compression mode            : Lossy
Stream size                 : 138 MiB (2%)
Title                       : Двухголосый закадровый, НТВ+
Language                    : Russian
Default                     : No
Forced                      : No
Audio #3
ID                          : 4
Format                      : FLAC
Format/Info                 : Free Lossless Audio Codec
Codec ID                    : A_FLAC
Duration                    : 1h 40mn
Bit rate mode               : Variable
Bit rate                    : 222 Kbps
Channel(s)                  : 1 channel
Channel positions           : Front: C
Sampling rate               : 48.0 KHz
Frame rate                  : 11.719 fps (4096 spf)
Bit depth                   : 16 bits
Stream size                 : 160 MiB (2%)
Writing library             : libFLAC 1.2.1 (UTC 2007-09-17)
Language                    : English
Default                     : No
Forced                      : No
Text #1
ID                          : 5
Format                      : UTF-8
Codec ID                    : S_TEXT/UTF8
Codec ID/Info               : UTF-8 Plain Text
Duration                    : 1h 37mn
Bit rate                    : 44 bps
Count of elements           : 1061
Stream size                 : 31.9 KiB (0%)
Language                    : English
Default                     : No
Forced                      : No
Text #2
ID                          : 6
Format                      : UTF-8
Codec ID                    : S_TEXT/UTF8
Codec ID/Info               : UTF-8 Plain Text
Duration                    : 1h 38mn
Bit rate                    : 48 bps
Count of elements           : 1227
Stream size                 : 34.7 KiB (0%)
Title                       : SDH
Language                    : English
Default                     : No
Forced                      : No
Menu
00:00:00.000                : en:00:00:00.000
00:04:24.264                : en:00:04:24.264
00:07:57.310                : en:00:07:57.310
00:12:03.347                : en:00:12:03.347
00:16:25.401                : en:00:16:25.401
00:21:08.767                : en:00:21:08.767
00:24:47.486                : en:00:24:47.486
00:29:23.344                : en:00:29:23.344
00:32:53.262                : en:00:32:53.262
00:38:32.018                : en:00:38:32.018
00:41:53.052                : en:00:41:53.052
00:45:08.330                : en:00:45:08.330
00:50:19.016                : en:00:50:19.016
00:54:56.293                : en:00:54:56.293
00:56:28.385                : en:00:56:28.385
01:02:39.297                : en:01:02:39.297
01:07:10.317                : en:01:07:10.317
01:11:58.105                : en:01:11:58.105
01:14:59.077                : en:01:14:59.077
01:20:00.921                : en:01:20:00.921
01:22:31.780                : en:01:22:31.780
01:26:15.170                : en:01:26:15.170
01:32:46.310                : en:01:32:46.310
01:35:30.683                : en:01:35:30.683

Скриншоты


_________________
Показать сообщения:    

Текущее время: Сегодня 20:58

Часовой пояс: GMT



Вы не можете начинать темы
Вы не можете отвечать на сообщения
Вы не можете редактировать свои сообщения
Вы не можете удалять свои сообщения
Вы не можете голосовать в опросах
Вы не можете прикреплять файлы к сообщениям
Вы не можете скачивать файлы