Важное объявление!
У Нас Все раздачи мультитрекерные, при нуле пиров в релизах, можете смело вставать на закачку!
 
Автор Сообщение

HUNTER

Стаж:
4 года 4 месяца
Сообщений:
56755

Репутация: 101

[+] [-]
Вне форума [Профиль] [ЛС]

Земля обетованная от Иосифа Сталина
Жанр: Документальная драма
Год выпуска: 2009
Продолжительность: 02:54:58
Страна: Россия
Перевод: Не требуется
Режиссёр: Алексей Гирба
В ролях: Валерий Гаркалин, Валерий Жаков, Владимир Щербаков, Александр Резалин, Александр Рапопорт
Описание: С началом Великой Отечественной войны руководство Советского Союза, будучи оставленным вероятными "союзниками" без какой либо реальной помощи в борьбе с агрессором, особое внимание стало уделять еврейским зарубежным организациям, имеющим серьезное влияние на финансовые и промышленные круги, на СМИ и политиков за рубежом. Надежда была на ускорение открытия второго фронта и получения финансовой помощи от Запада. Фильм рассказывает, о том, как советское руководство разыгрывало еврейскую карту, а также о том как лично Сталин и руководство Советского Союза оказали решающую роль в создании независимого израильского государства.
В мая 2008 года отмечается ещё один юбилей, который почти не замечен российскими СМИ. 14 марта 1948 года в г. Тель-Авиве спустя 1800 лет вновь было провозглашено еврейское государство, получившее название Израиль. Уже 15 мая США и СССР признали новое государство. Но американцы признали Израиль де-факто, что предполагало создание в Израиле миссии, а не посольства. Полное дипломатическое признание Израиля Соединенными Штатами последовало только в 1949 году. СССР же признал Израиль в полном объеме.В тот же день войска Египта, Иордании, Сирии Ирака и Ливана вторглись на территорию Израиля. Война продлилась до июля 1949 года и закончилась поражением арабских стран и значительным расширением границ Израиля по сравнению с официально установленными ООН. Потом были другие арабо-еврейские войны. Кто там был прав и кто виноват, сейчас не суть важно. Отмечу лишь, что после этих войн в 1980 г. Иерусалим был объявлен столицей Израиля, хотя и не признанной большинством стран мира.
В день юбилея мне хотелось бы напомнить евреям о том, кто создал, а затем спас израильское государство (а этим человеком был Сталин) и ЧТО ещё для них сделал Сталин. А сделал он вот что — Сталин, по сути, евреям всегда благоволил и оказал гигантскую и до сих пор неоцененную историческую услугу еврейскому народу. Именно Сталин позволил евреям выполнить мечту нескольких поколений — создать государство Израиль: в 1948 году у евреев СССР и всего мира появилась вторая Родина (что, к большому сожалению, не способствовало росту их патриотизма по отношению к СССР). Можно сказать даже больше — без активной поддержки Сталиным проекта создания государства Израиль на территории Палестины, такого государства в настоящее время не существовало бы.
В заключение добавлю что данный фильм по телеканалам не транслировался (за исключением Украины - один раз), на носителях он не выходил, и информация о нем с сайта компании Амедиа не так давно была удалена за исключением одного упоминания (во вкладке "Официальная информация")
Доп. информация:
Цикл документальных драм компании АМЕДИА:
В одном шаге от Третьей мировой (2009)
Земля обетованная от Иосифа Сталина (2009)
Берия. Проигрыш (2010)
Осведомленный источник в Москве (2010)
Тухачевский.Заговор маршала (2010)
И примкнувший к ним Шепилов (2011)
Качество видео: SATRip
Формат видео: AVI
Семпл
Видео: DivX, 1347 kbps, 640x376, 0.224 bit/pixel, 25 fps
Аудио: MP3, 2 ch, 128 kbps, 44.1 KHz

MediaInfo

Complete name : земля обетованная от иосифа сталина (2009).avi
Format : AVI
Format/Info : Audio Video Interleave
File size : 1.81 GiB
Duration : 2h 54mn
Overall bit rate : 1 485 Kbps
Writing library : VirtualDub-MPEG2 build 24586/release
Video
ID : 0
Format : MPEG-4 Visual
Format profile : Advanced Simple@L5
Format settings, BVOP : 1
Format settings, QPel : No
Format settings, GMC : No warppoints
Format settings, Matrix : Default (H.263)
Muxing mode : Packed bitstream
Codec ID : DX50
Codec ID/Hint : DivX 5
Duration : 2h 54mn
Bit rate : 1 347 Kbps
Width : 640 pixels
Height : 376 pixels
Display aspect ratio : 1.702
Frame rate : 25.000 fps
Color space : YUV
Chroma subsampling : 4:2:0
Bit depth : 8 bits
Scan type : Progressive
Compression mode : Lossy
Bits/(Pixel*Frame) : 0.224
Stream size : 1.65 GiB (91%)
Writing library : XviD 64
Audio
ID : 1
Format : MPEG Audio
Format version : Version 1
Format profile : Layer 3
Mode : Joint stereo
Mode extension : MS Stereo
Codec ID : 55
Codec ID/Hint : MP3
Duration : 2h 54mn
Bit rate mode : Constant
Bit rate : 128 Kbps
Channel(s) : 2 channels
Sampling rate : 44.1 KHz
Compression mode : Lossy
Stream size : 160 MiB (9%)
Alignment : Split accross interleaves
Interleave, duration : 40 ms (1.00 video frame)
Interleave, preload duration : 500 ms

Скриншот c названием фильма

Скриншоты


_________________
Показать сообщения:    

Текущее время: Сегодня 18:35

Часовой пояс: GMT



Вы не можете начинать темы
Вы не можете отвечать на сообщения
Вы не можете редактировать свои сообщения
Вы не можете удалять свои сообщения
Вы не можете голосовать в опросах
Вы не можете прикреплять файлы к сообщениям
Вы не можете скачивать файлы