Важное объявление!
У Нас Все раздачи мультитрекерные, при нуле пиров в релизах, можете смело вставать на закачку!
 
Автор Сообщение

HUNTER

Стаж:
4 года 4 месяца
Сообщений:
56829

Репутация: 101

[+] [-]
Вне форума [Профиль] [ЛС]

Земля до начала времен 4: Путешествие в Землю Туманов / The Land Before Time IV: Journey Through the Mists
Страна: США
Жанр: Анимация
Продолжительность: 01:13:52
Год выпуска: 1996
Перевод: Авторский (одноголосый закадровый) Павел Санаев
Русские субтитры: нет
Режиссёр: Рой Аллен Смит / Roy Allen Smith
Роли озвучивали: Джон Ингл, Кендес Хатсон, Хезер Хоган, Роб Полсен, Джефф Беннетт, Скотт МакЭфи, Кеннет Марс, Линда Гэри, Кэрол Брюс, Джулиана Хансен
Описание: Обитателей Великой Долины ждут новости! Бродячая стая Длинношеих поведала о том, что погода за пределами долины испортилась: далекая область, что некогда именовалась Сухой Землей, теперь превратилась в Землю Туманов. Там стали появляться странные, неизвестные существа; и поговаривают, что посещение дождливых мест стало делом небезопасным.
Впрочем, никто из беспечных жителей Великой Долины и не пошел бы туда, если бы не возникла необходимость: дедушка бронтозаврика Крошки-Ножки заболел. Помочь ему могут только лепестки золотистого Ночного Цветка, который растет лишь в… Земле Туманов! Теперь нужно снаряжать спасательную экспедицию за лекарством для дедушки. Приключения начинаются: наши очаровательные малыши отправляются в опасное путешествие в Землю Туманов за Ночным Цветком!
Доп. информация: Дорожка с П. Санаевым синхронизирована, ремастерирована и наложена ale_x2008 при помощи Sony Vegas и VirtualDubMod.
За оцифрованную с VHS дорожку благодарим - d_rocker

Релиз
Семпл: https://yadi.sk/i/hMQzXnF0qSQUh
Качество: DVDRip
Формат: AVI
Видео: XviD build 73, 640x480 (1.33:1), 23.976 fps, 2256 Kbps, 0.31 bit/pixel
Аудио: AC3 Dolby Digital, 48000Hz, 2/0 (L,R) ch (mono), 192.00 kbps avg [AVO]
Аудио 2: AC3 Dolby Digital, 48000Hz, 2/0 (L,R) ch (stereo), 192.00 kbps avg [Eng]
Субтитры: отсутствуют

Подробные технические данные

Земля до начала времен 4 - The Land Before Time IV [by ale_x2008].aviFormat : AVIFormat/Info : Audio Video InterleaveFile size : 1.37 GiBDuration : 1h 13mnOverall bit rate : 2 655 KbpsMovie name : Земля до начала времен 4 - The Land Before Time IV [by ale_x2008]Director : by ale_x2008Writing application : VirtualDubMod 1.5.10.3 (build 2550/release)Copyright : Edich2Comment : RuTracker.org
VideoID : 0Format : MPEG-4 VisualFormat profile : Advanced Simple@L5Format settings, BVOP : 2Format settings, QPel : NoFormat settings, GMC : No warppointsFormat settings, Matrix : CustomCodec ID : XVIDCodec ID/Hint : XviDDuration : 1h 13mnBit rate : 2 257 KbpsWidth : 640 pixelsHeight : 480 pixelsDisplay aspect ratio : 4:3Frame rate : 23.976 (24000/1001) fpsColor space : YUVChroma subsampling : 4:2:0Bit depth : 8 bitsScan type : ProgressiveCompression mode : LossyBits/(Pixel*Frame) : 0.306Stream size : 1.16 GiB (85%)Writing library : XviD 73
Audio #1ID : 1Format : AC-3Format/Info : Audio Coding 3Mode extension : CM (complete main)Format settings, Endianness : BigCodec ID : 2000Duration : 1h 13mnBit rate mode : ConstantBit rate : 192 KbpsChannel(s) : 2 channelsChannel positions : Front: L RSampling rate : 48.0 KHzFrame rate : 31.250 fps (1536 spf)Compression mode : LossyStream size : 101 MiB (7%)Alignment : Split accross interleavesInterleave, duration : 42 ms (1.00 video frame)Interleave, preload duratio : 500 ms
Audio #2ID : 2Format : AC-3Format/Info : Audio Coding 3Mode extension : CM (complete main)Format settings, Endianness : BigCodec ID : 2000Duration : 1h 13mnBit rate mode : ConstantBit rate : 192 KbpsChannel(s) : 2 channelsChannel positions : Front: L RSampling rate : 48.0 KHzFrame rate : 31.250 fps (1536 spf)Compression mode : LossyStream size : 101 MiB (7%)Alignment : Split accross interleavesInterleave, duration : 42 ms (1.00 video frame)Interleave, preload duratio : 500 ms

Скриншоты



_________________
Показать сообщения:    

Текущее время: Сегодня 17:32

Часовой пояс: GMT



Вы не можете начинать темы
Вы не можете отвечать на сообщения
Вы не можете редактировать свои сообщения
Вы не можете удалять свои сообщения
Вы не можете голосовать в опросах
Вы не можете прикреплять файлы к сообщениям
Вы не можете скачивать файлы