Важное объявление!
У Нас Все раздачи мультитрекерные, при нуле пиров в релизах, можете смело вставать на закачку!
 
Автор Сообщение

HUNTER

Стаж:
4 года 4 месяца
Сообщений:
56829

Репутация: 101

[+] [-]
Вне форума [Профиль] [ЛС]

Земля до Начала Времен 12: Великий день птиц
The Land Before Time XII: The Great Day of The Flyers
Год выпуска: 2006
Страна: США
Жанр: мультфильм, мюзикл, приключения, семейный
Продолжительность: 01:20:22
Перевод:
Профессиональный (Дублированный)
Авторский (Одноголосый закадровый) - А. Дольский
русские субтитры: нет-Режиссёр: Чарльз Гросвенор : Charles Grosvenor-Роли озвучивали: Джон Ингл, Ник Прайс, Ария Ноэль Курзон, Роб Полсен, Камрин Менхейм, Энди МакЭфи, Джефф Беннетт, Ника Футтерман, Сьюзэн Блу, Тресс МакНилл-Описание: Веселье начинает свой полет в компании наших доисторических друзей Литлфута, Сэры, Питри, Спайка и Даки в новом парящем приключении! «Великий День Птиц» — важное событие в жизни всех летающих Великой Долины — совсем скоро наступит, но независимый свободный стиль Питри не позволяет герою вписаться в стаю своих близких. Друзья стараются помочь ему, но новичок по имени Гвидо дает самый полезный совет — иногда лучше оставаться «самим собой». Никто никогда не видел такого как Гвидо, и когда команда пытается выяснить, к какому виду динозавров он принадлежит, они неожиданно оказываются вовлечены в волнующее таинственное путешествие.- релиз: -- Большое спасибо Sunny (HDClub) за исходный WEB-DL;
- Работа с WEB-DL и звуком -Azureus--Качество: WEB-DL 720p
Формат: MKV
Видео кодек: AVC
Аудио кодек: AC3
Видео: 1280x718 , 23,976 fps, ~3874 kbps avg, 0.176 bit/pixel
Аудио #1: [RUS] 48 kHz, AC3 Dolby Digital, 3/2 (L,C,R,l,r) + LFE ch, ~384 kbps avg - DUB
Аудио #2: [RUS] 48 kHz, AC3 Dolby Digital, 2/0 (L,R) ch, ~192 kbps avg - AVO
Аудио #3: [ENG] 48 kHz, AC3 Dolby Digital, 3/2 (L,C,R,l,r) + LFE ch, ~384 kbps avg
субтитры: английские
навигация по главам: 18 глав (именные)

MediaInfo

Общее
Уникальный идентификатор : 183260334578148759619172335656791506200 (0x89DEA816D2A1E3B8ADFDD187145CFD18)
Полное имя : D:\Im\Земля до начала времен\The Land Before Time XII The Great Day of the Flyers.2006.WEB-DL 720p.mkv
Формат : Matroska
Версия формата : Version 4 / Version 2
Размер файла : 2,77 Гбайт
Продолжительность : 1 ч. 20 м.
Общий поток : 4932 Кбит/сек
Название фильма : The Land Before Time XII: The Great Day of the Flyers.2006.WEB-DL 720p -Azureus-
Дата кодирования : UTC 2015-06-15 19:00:12
Программа кодирования : mkvmerge v7.9.0 ('Birds') 32bit
Библиотека кодирования : libebml v1.3.1 + libmatroska v1.4.2
DURATION : 01:16:35.637000000
NUMBER_OF_FRAMES : 939
NUMBER_OF_BYTES : 27609
_STATISTICS_WRITING_APP : mkvmerge v7.9.0 ('Birds') 32bit
_STATISTICS_WRITING_DATE_UTC : 2015-06-15 19:00:12
_STATISTICS_TAGS : BPS DURATION NUMBER_OF_FRAMES NUMBER_OF_BYTES
Видео
Идентификатор : 1
Формат : AVC
Формат/Информация : Advanced Video Codec
Профиль формата : High@L3.1
Параметр CABAC формата : Нет
Параметр ReFrames формата : 2 кадра
Идентификатор кодека : V_MPEG4/ISO/AVC
Продолжительность : 1 ч. 20 м.
Битрейт : 3874 Кбит/сек
Ширина : 1280 пикселей
Высота : 718 пикселей
Соотношение сторон : 16:9
Частота кадров : 23,976 кадра/сек
Цветовое пространство : YUV
Субдискретизация насыщенности : 4:2:0
Битовая глубина : 8 бит
Тип развёртки : Прогрессивная
Бит/(Пиксели*Кадры) : 0.176
Размер потока : 2,17 Гбайт (79%)
Язык : English
Default : Да
Forced : Нет
Основные цвета : BT.709-5, BT.1361, IEC 61966-2-4, SMPTE RP177
Характеристики трансфера : BT.709-5, BT.1361
Коэффициенты матрицы : BT.709-5, BT.1361, IEC 61966-2-4 709, SMPTE RP177
Аудио #1
Идентификатор : 2
Формат : AC-3
Формат/Информация : Audio Coding 3
Расширение режима : CM (complete main)
Идентификатор кодека : A_AC3
Продолжительность : 1 ч. 20 м.
Вид битрейта : Постоянный
Битрейт : 384 Кбит/сек
Каналы : 6 каналов
Расположение каналов : Front: L C R, Side: L R, LFE
Частота : 48,0 КГц
Битовая глубина : 16 бит
Метод сжатия : С потерями
Размер потока : 221 Мбайт (8%)
Заголовок : DUB
Язык : Russian
Default : Да
Forced : Нет
Аудио #2
Идентификатор : 3
Формат : AC-3
Формат/Информация : Audio Coding 3
Расширение режима : CM (complete main)
Идентификатор кодека : A_AC3
Продолжительность : 1 ч. 20 м.
Вид битрейта : Постоянный
Битрейт : 192 Кбит/сек
Каналы : 2 канала
Расположение каналов : Front: L R
Частота : 48,0 КГц
Битовая глубина : 16 бит
Метод сжатия : С потерями
Размер потока : 110 Мбайт (4%)
Заголовок : AVO - Дольский
Язык : Russian
Default : Нет
Forced : Нет
Аудио #3
Идентификатор : 4
Формат : AC-3
Формат/Информация : Audio Coding 3
Расширение режима : CM (complete main)
Идентификатор кодека : A_AC3
Продолжительность : 1 ч. 20 м.
Вид битрейта : Постоянный
Битрейт : 384 Кбит/сек
Каналы : 6 каналов
Расположение каналов : Front: L C R, Side: L R, LFE
Частота : 48,0 КГц
Битовая глубина : 16 бит
Метод сжатия : С потерями
Размер потока : 221 Мбайт (8%)
Заголовок : ENG
Язык : English
Default : Нет
Forced : Нет
Текст
Идентификатор : 5
Формат : UTF-8
Идентификатор кодека : S_TEXT/UTF8
Идентификатор кодека/Информация : UTF-8 Plain Text
Заголовок : SDH
Язык : English
Default : Нет
Forced : Нет
Меню
00:00:00.000 : en:1. Prologue (Main Titles)
00:02:21.000 : en:2. Practice
00:07:45.000 : en:3. Tradition
00:11:53.000 : en:4. What Is It?
00:17:42.000 : en:5. "One of a Kind"
00:21:15.000 : en:6. Follow the Leader
00:24:58.000 : en:7. A New Addition
00:28:49.000 : en:8. Funny Looking
00:31:40.000 : en:9. Advanced Hatchling
00:34:27.000 : en:10. "Things Change"
00:39:15.000 : en:11. Happy Landing
00:43:43.000 : en:12. Sleepwalking
00:50:01.000 : en:13. The Mysterious Beyond
00:56:02.000 : en:14. Sharp Tooth Attack
01:01:54.000 : en:15. Be Yourself
01:08:31.000 : en:16. "Flip, Flap & Fly"
01:11:23.000 : en:17. Petrie to the Rescue
01:17:24.000 : en:18. End Titles
____________________________________________
Стою на раздаче до 5 дней.
Просьба скачавшим как можно дольше не покидать раздачу!
ВСЕМ ПРИЯТНОГО ПРОСМОТРА!_________________________________________

_________________
Показать сообщения:    

Текущее время: Сегодня 09:43

Часовой пояс: GMT



Вы не можете начинать темы
Вы не можете отвечать на сообщения
Вы не можете редактировать свои сообщения
Вы не можете удалять свои сообщения
Вы не можете голосовать в опросах
Вы не можете прикреплять файлы к сообщениям
Вы не можете скачивать файлы