Важное объявление!
У Нас Все раздачи мультитрекерные, при нуле пиров в релизах, можете смело вставать на закачку!
 
Автор Сообщение

mihis

[Профиль] [ЛС]

Землетрясение / Earthquake«An Event...»
Год выпуска: 1974
Страна: США, The Filmakers Group, Universal Pictures
Жанр: Боевик, фильм-катастрофа, триллер, драма
Продолжительность: 02:01:57
Перевод: Профессиональный (двухголосый, закадровый) + Оригинал
Субтитры: Русские, английские
Режиссер: Марк Робсон
В ролях: Чарлтон Хестон, Ава Гарднер, Джордж Кеннеди, Женевьев Бюжо, Уолтер Мэттау, Ричард Роундтри, Марджио Гортнер, Барри Салливэн, Ллойд Нолан, Виктория Принсипал, Моника Льюис, Гэбриел Делл, Педро Армендарис мл., Ллойд Гаф, Джон Рэндолф, Кип Найвен, Скотт Хиландс, Доналд Моффэт, Джесси Винт, Алан Винт
Описание: Один из наиболее известных фильмов катастроф. Прелюдией землетрясения является экспозиция судеб различных людей, будущих героев фильма; они заняты собственными проблемами, не предполагая, какое ужасающее бедствие им грозит... Великолепные комбинированные съемки и знаменитые актеры. Во время демонстрации этого фильма некоторые кинотеатры снабжались специальной аппаратурой, передающей низкочастотные колебания на кресла кинозала, что создавало у зрителей полную иллюзию того, что гул и подземные толчки происходят не только на экране.

Качество: BDRip-AVC
Формат: MKV
Видео кодек: H.264
Аудио кодек: AC3
Видео: AVC, 1024x434 (2.35:1), 23.976 fps, 3 500 Kbps (0.328 bit/pixel)
Аудио #1: AC-3, 48.0 KHz, 2 ch, 192 Kbps, CBR Rus
Аудио #2: AC-3, 48.0 KHz, 6 ch, 448 Kbps, CBR Eng

Награды

Оскар, 1975 год
Победитель (2):
Лучший звук
Награда за особые достижения — «за визуальные эффекты»
Номинации (3):
Лучшая работа оператора
Лучшие декорации
Лучший монтаж
Специальный «Оскар» за визуальные эффекты (Фрэнк Брендел, Глен Робинсон, Альберт Уитлок — Frank Brendel, Glen Robinson, Albert Whitlock).
Золотой глобус, 1975 год
Номинации (2):
Лучший фильм (драма)
Лучший саундтрек
Британская академия, 1975 год
Номинации (1):
Лучший саундтрек

MediaInfo

Общее
Уникальный идентификатор : 242155798634411192580377118468464044060 (0xB62D82A83E7FDF70B808C3678099E81C)
Полное имя : D:\Video\Zemletryasenie.1974.BDRip.(AVC)-MediaClub.mkv
Формат : Matroska
Версия формата : Version 4 / Version 2
Размер файла : 3,53 Гбайт
Продолжительность : 2 ч. 1 м.
Общий поток : 4143 Кбит/сек
Название фильма : -=MediaClub-kaspr=-
Дата кодирования : UTC 2013-08-04 06:11:21
Программа кодирования : mkvmerge v6.3.0 ('You can't stop me!') built on Jul 19 2013 16:27:38
Библиотека кодирования : libebml v1.3.0 + libmatroska v1.4.1
Видео
Идентификатор : 1
Формат : AVC
Формат/Информация : Advanced Video Codec
Профиль формата : High@L4.1
Параметр CABAC формата : Да
Параметр ReFrames формата : 8 кадров
Идентификатор кодека : V_MPEG4/ISO/AVC
Продолжительность : 2 ч. 1 м.
Битрейт : 3500 Кбит/сек
Ширина : 1024 пикселя
Высота : 434 пикселя
Соотношение сторон : 2,35:1
Режим частоты кадров : Постоянный
Частота кадров : 23,976 кадра/сек
Цветовое пространство : YUV
Субдискретизация насыщенности : 4:2:0
Битовая глубина : 8 бит
Тип развёртки : Прогрессивная
Бит/(Пиксели*Кадры) : 0.328
Размер потока : 2,91 Гбайт (83%)
Заголовок : -=MediaClub-kaspr=-
Библиотека кодирования : x264 core 130 r2273 b3065e6
Настройки программы : cabac=1 / ref=8 / deblock=1:-3:-3 / analyse=0x3:0x133 / me=umh / subme=11 / psy=1 / psy_rd=1.00:0.20 / mixed_ref=1 / me_range=32 / chroma_me=1 / trellis=2 / 8x8dct=1 / cqm=0 / deadzone=21,11 / fast_pskip=0 / chroma_qp_offset=-3 / threads=12 / lookahead_threads=2 / sliced_threads=0 / nr=0 / decimate=0 / interlaced=0 / bluray_compat=0 / constrained_intra=0 / bframes=8 / b_pyramid=2 / b_adapt=2 / b_bias=0 / direct=3 / weightb=1 / open_gop=0 / weightp=2 / keyint=250 / keyint_min=23 / scenecut=40 / intra_refresh=0 / rc=2pass / mbtree=0 / bitrate=3500 / ratetol=1.0 / qcomp=0.60 / qpmin=0 / qpmax=69 / qpstep=4 / cplxblur=20.0 / qblur=0.5 / ip_ratio=1.40 / pb_ratio=1.30 / aq=1:1.00
Default : Да
Forced : Да
Аудио #1
Идентификатор : 2
Формат : AC-3
Формат/Информация : Audio Coding 3
Расширение режима : CM (complete main)
Параметр Endianness формата : Big
Идентификатор кодека : A_AC3
Продолжительность : 2 ч. 1 м.
Вид битрейта : Постоянный
Битрейт : 192 Кбит/сек
Каналы : 2 канала
Расположение каналов : Front: L R
Частота : 48,0 КГц
Битовая глубина : 16 бит
Метод сжатия : С потерями
Задержка видео : 16 мс.
Размер потока : 167 Мбайт (5%)
Заголовок : ЛД
Язык : Russian
Default : Да
Forced : Да
Аудио #2
Идентификатор : 3
Формат : AC-3
Формат/Информация : Audio Coding 3
Расширение режима : CM (complete main)
Параметр Endianness формата : Big
Идентификатор кодека : A_AC3
Продолжительность : 2 ч. 1 м.
Вид битрейта : Постоянный
Битрейт : 448 Кбит/сек
Каналы : 6 каналов
Расположение каналов : Front: L C R, Side: L R, LFE
Частота : 48,0 КГц
Битовая глубина : 16 бит
Метод сжатия : С потерями
Размер потока : 391 Мбайт (11%)
Заголовок : Оригинал
Язык : English
Default : Нет
Forced : Нет
Текст #1
Идентификатор : 4
Формат : UTF-8
Идентификатор кодека : S_TEXT/UTF8
Идентификатор кодека/Информация : UTF-8 Plain Text
Язык : Russian
Default : Нет
Forced : Нет
Текст #2
Идентификатор : 5
Формат : UTF-8
Идентификатор кодека : S_TEXT/UTF8
Идентификатор кодека/Информация : UTF-8 Plain Text
Язык : English
Default : Нет
Forced : Нет
Меню
00:00:00.000 : en:Chapter 01
00:05:54.771 : en:Chapter 02
00:10:42.308 : en:Chapter 03
00:16:38.288 : en:Chapter 04
00:21:32.708 : en:Chapter 05
00:28:27.789 : en:Chapter 06
00:37:12.438 : en:Chapter 07
00:43:14.383 : en:Chapter 08
00:51:44.684 : en:Chapter 09
01:00:07.687 : en:Chapter 10
01:08:44.370 : en:Chapter 11
01:13:56.348 : en:Chapter 12
01:18:55.564 : en:Chapter 13
01:28:24.173 : en:Chapter 14
01:33:41.532 : en:Chapter 15
01:43:05.637 : en:Chapter 16
01:52:26.197 : en:Chapter 17
02:00:12.663 : en:Chapter 18
 
Показать сообщения:    

Текущее время: Сегодня 10:56

Часовой пояс: GMT



Вы не можете начинать темы
Вы не можете отвечать на сообщения
Вы не можете редактировать свои сообщения
Вы не можете удалять свои сообщения
Вы не можете голосовать в опросах
Вы не можете прикреплять файлы к сообщениям
Вы не можете скачивать файлы