Важное объявление!
У Нас Все раздачи мультитрекерные, при нуле пиров в релизах, можете смело вставать на закачку!
 
Автор Сообщение

HUNTER

Стаж:
4 года 4 месяца
Сообщений:
56808

Репутация: 101

[+] [-]
Вне форума [Профиль] [ЛС]

-Здравствуй, папа, Новый годDaddy's Home-
Страна: США
Жанр: комедия
Год выпуска: 2015
Продолжительность: 01:36:01-Перевод: Профессиональный (дублированный) iTunes
Cубтитры: русские, английские
Оригинальная аудиодорожка: английский-Режиссер: Шон Андерс / Sean Anders-В ролях: Уилл Феррелл, Марк Уолберг, Линда Карделлини, Томас Хейден Чёрч, Скарлет Эстевез, Оуэн Ваккаро, Бобби Каннавале, Хэннибал Бёресс, Билл Бёрр, Джейми Денбо-Описание: Отец двоих детей возвращается к своей бывшей жене, которая успела выйти замуж, и теперь его ждет соперничество с отчимом за внимание своих отпрысков.- -Тип релиза: BDRip 1080p
Контейнер: MKV
Видео: H.264, 1920x1080 (16:9), 23.98fps, 11000kbps, 0.220 Bits/(Pixel*Frame)
Аудио: Rus: AC3 48kHz 6ch 384Kbps
Аудио 2: Eng: DTS 48kHz 6ch 1510Kbps
Формат субтитров: softsub (SRT)-

MediaInfo

General
Unique ID : 180648529760032710206878794931107618572 (0x87E7A42B69DBB4EDA36D4ED0B54D5F0C)
Complete name : D:\Фильмы\Здравствуй, папа, Новый год.mkv
Format : Matroska
Format version : Version 2
File size : 8.80 GiB
Duration : 1h 36mn
Overall bit rate : 13.1 Mbps
Encoded date : UTC 2016-04-05 02:40:25
Writing application : mkvmerge v7.8.0 ('River Man') 32bit built on Apr 3 2015 12:11:22
Writing library : libebml v1.3.1 + libmatroska v1.4.2
Video
ID : 1
Format : AVC
Format/Info : Advanced Video Codec
Format profile : High@L4.1
Format settings, CABAC : Yes
Format settings, ReFrames : 4 frames
Codec ID : V_MPEG4/ISO/AVC
Duration : 1h 36mn
Bit rate : 11.0 Mbps
Width : 1 920 pixels
Height : 1 080 pixels
Display aspect ratio : 16:9
Frame rate mode : Constant
Frame rate : 23.976 (24000/1001) fps
Color space : YUV
Chroma subsampling : 4:2:0
Bit depth : 8 bits
Scan type : Progressive
Bits/(Pixel*Frame) : 0.220
Stream size : 7.35 GiB (84%)
Writing library : x264 core 148 r2665kMod a01e339
Encoding settings : cabac=1 / ref=4 / deblock=1:-3:-3 / analyse=0x3:0x133 / me=umh / subme=10 / psy=1 / fade_compensate=0.00 / psy_rd=1.10:0.00 / mixed_ref=1 / me_range=24 / chroma_me=1 / trellis=2 / 8x8dct=1 / cqm=0 / deadzone=21,11 / fast_pskip=0 / chroma_qp_offset=-2 / threads=12 / lookahead_threads=2 / sliced_threads=0 / nr=0 / decimate=0 / interlaced=0 / bluray_compat=0 / constrained_intra=0 / fgo=0 / bframes=9 / b_pyramid=2 / b_adapt=2 / b_bias=0 / direct=3 / weightb=1 / open_gop=0 / weightp=2 / keyint=250 / keyint_min=23 / scenecut=40 / intra_refresh=0 / rc_lookahead=60 / rc=crf / mbtree=0 / crf=19.5000 / qcomp=0.68 / qpmin=0 / qpmax=69 / qpstep=4 / vbv_maxrate=62500 / vbv_bufsize=78125 / crf_max=0.0 / nal_hrd=none / filler=0 / ip_ratio=1.30 / pb_ratio=1.20 / aq=3:0.80
Language : English
Default : Yes
Forced : No
Color range : Limited
Matrix coefficients : BT.709
Statistics Tags Issue : mkvmerge v8.3.0 ('Over the Horizon') 64bit 2016-04-04 18:08:05 / mkvmerge v7.8.0 ('River Man') 32bit built on Apr 3 2015 12:11:22 2016-04-05 02:40:25
FromStats_BitRate : 11219268
FromStats_Duration : 01:36:01.923000000
FromStats_FrameCount : 138148
FromStats_StreamSize : 8080569842
Audio #1
ID : 2
Format : AC-3
Format/Info : Audio Coding 3
Mode extension : CM (complete main)
Format settings, Endianness : Big
Codec ID : A_AC3
Duration : 1h 36mn
Bit rate mode : Constant
Bit rate : 384 Kbps
Channel(s) : 6 channels
Channel positions : Front: L C R, Side: L R, LFE
Sampling rate : 48.0 KHz
Frame rate : 31.250 fps (1536 spf)
Compression mode : Lossy
Delay relative to video : 852ms
Stream size : 264 MiB (3%)
Language : Russian
Default : Yes
Forced : Yes
Statistics Tags Issue : mkvmerge v8.3.0 ('Over the Horizon') 64bit 2016-04-04 18:08:05 / mkvmerge v7.8.0 ('River Man') 32bit built on Apr 3 2015 12:11:22 2016-04-05 02:40:25
FromStats_BitRate : 384000
FromStats_Duration : 01:36:01.120000000
FromStats_FrameCount : 180035
FromStats_StreamSize : 276533760
Audio #2
ID : 3
Format : DTS
Format/Info : Digital Theater Systems
Mode : 16
Format settings, Endianness : Big
Codec ID : A_DTS
Duration : 1h 36mn
Bit rate mode : Constant
Bit rate : 1 509 Kbps
Channel(s) : 6 channels
Channel positions : Front: L C R, Side: L R, LFE
Sampling rate : 48.0 KHz
Frame rate : 93.750 fps (512 spf)
Bit depth : 24 bits
Compression mode : Lossy
Stream size : 1.01 GiB (12%)
Language : English
Default : No
Forced : No
Statistics Tags Issue : mkvmerge v8.3.0 ('Over the Horizon') 64bit 2016-04-04 18:08:05 / mkvmerge v7.8.0 ('River Man') 32bit built on Apr 3 2015 12:11:22 2016-04-05 02:40:25
FromStats_BitRate : 1508999
FromStats_Duration : 01:36:01.931000000
FromStats_FrameCount : 540181
FromStats_StreamSize : 1086844172
Text #1
ID : 4
Format : UTF-8
Codec ID : S_TEXT/UTF8
Codec ID/Info : UTF-8 Plain Text
Language : Russian
Default : No
Forced : No
Text #2
ID : 5
Format : UTF-8
Codec ID : S_TEXT/UTF8
Codec ID/Info : UTF-8 Plain Text
Title : SDH
Language : English
Default : No
Forced : No
Statistics Tags Issue : mkvmerge v8.3.0 ('Over the Horizon') 64bit 2016-04-04 18:08:05 / mkvmerge v7.8.0 ('River Man') 32bit built on Apr 3 2015 12:11:22 2016-04-05 02:40:25
FromStats_BitRate : 111
FromStats_Duration : 01:33:52.460000000
FromStats_FrameCount : 2160
FromStats_StreamSize : 78828
Text #3
ID : 6
Format : UTF-8
Codec ID : S_TEXT/UTF8
Codec ID/Info : UTF-8 Plain Text
Language : English
Default : No
Forced : No
Statistics Tags Issue : mkvmerge v8.3.0 ('Over the Horizon') 64bit 2016-04-04 18:08:05 / mkvmerge v7.8.0 ('River Man') 32bit built on Apr 3 2015 12:11:22 2016-04-05 02:40:25
FromStats_BitRate : 106
FromStats_Duration : 01:33:49.665000000
FromStats_FrameCount : 2050
FromStats_StreamSize : 75190
Text #4
ID : 7
Format : UTF-8
Codec ID : S_TEXT/UTF8
Codec ID/Info : UTF-8 Plain Text
Title : FORCED
Language : English
Default : No
Forced : No
Statistics Tags Issue : mkvmerge v8.3.0 ('Over the Horizon') 64bit 2016-04-04 18:08:05 / mkvmerge v7.8.0 ('River Man') 32bit built on Apr 3 2015 12:11:22 2016-04-05 02:40:25
FromStats_BitRate : 136
FromStats_Duration : 00:00:03.294000000
FromStats_FrameCount : 1
FromStats_StreamSize : 56
Menu
00:00:00.000 : en:00:00:00.000
00:09:23.730 : en:00:09:23.730
00:19:57.071 : en:00:19:57.071
00:28:45.015 : en:00:28:45.015
00:35:35.050 : en:00:35:35.050
00:44:05.768 : en:00:44:05.768
00:55:54.726 : en:00:55:54.726
01:03:21.047 : en:01:03:21.047
01:12:08.199 : en:01:12:08.199
01:21:58.205 : en:01:21:58.205
01:31:15.261 : en:01:31:15.261

Скриншоты


_________________
Показать сообщения:    

Текущее время: Сегодня 09:29

Часовой пояс: GMT



Вы не можете начинать темы
Вы не можете отвечать на сообщения
Вы не можете редактировать свои сообщения
Вы не можете удалять свои сообщения
Вы не можете голосовать в опросах
Вы не можете прикреплять файлы к сообщениям
Вы не можете скачивать файлы