Важное объявление!
У Нас Все раздачи мультитрекерные, при нуле пиров в релизах, можете смело вставать на закачку!
 
Автор Сообщение

димитри37

Стаж:
3 года 8 месяцев
Сообщений:
1237

Репутация: 127

[+] [-]
Вне форума [Профиль] [ЛС]

Здравствуй, ночь / Buongiorno, notte / Good Morning, Night
Страна: Италия
Жанр: драма
Год выпуска: 2003
Продолжительность: 01:42:22
Перевод: Профессиональный (многоголосый закадровый)
Cубтитры: английские
Оригинальная аудиодорожка: итальянский[
Режиссер: Марко Беллоккьо / Marco Bellocchio
В ролях: Майя Санса, Луиджи Ло Кашио, Роберто Херлицка, Паоло Бригулья, Пьер Джорджо Беллоккьо, Джованни Калканьо, Джулио Бозетти, Джанни Скикки, Карло Костелли, Бруно Карьелло.
Описание: Рим, 1978 год. Молодая женщина Кьяра вместе со своим другом переезжает на новую квартиру. Внешне ее жизнь кажется размеренным, рутинным существованием, но ее коллега Энцо начинает подозревать, что за спокойной уравновешенной видимостью таится нечто иное.
На самом деле, Кьяра скрывает, что является членом итальянской подпольной экстремистской террористической группировки «Красные бригады», которая планирует похитить бывшего премьер-министра и убить за его предполагаемые преступления. Мы видим события глазами Кьяры — она то чувствует себя потерянной, то испытывает страх, путая реальность и вымысел. Осуществление плана началось, но постепенно выясняется, что не так-то просто держать в плену крупного политика, когда страна погружена в кризис.
С каждым прошедшим днем нарастает напряженность среди группы террористов, которые оказываются в таком же плену, как и их жертва. Подозрения и сомнения Кьяры, страстно верящей в революционную утопию, растут, и она начинает ставить под вопрос свои взгляды и поступки…

Качество видео: DVDRip-AVC
Формат видео: MKV
Видео: x264, 708x572@1006x572(Анаморф), 1.760:1, 25.000 fps, 2 200 kbit/s, Progressive, 0.217 Bits/(Pixel*Frame)
Аудио 1: AC-3, 48 KHz, 6 ch, 384 Kbps, Русский - Профессиональный (многоголосый закадровый)
Аудио 2: AC-3, 48 KHz, 6 ch, 384 Kbps, Итальянский - Original
Формат субтитров: prerendered (IDX+SUB)

Награды


Венецианский кинофестиваль, 2003 год
Победитель (3):
  • Приз за выдающийся индивидуальный вклад (Марко Беллоккьо)
  • Малый золотой лев
  • Награда CinemAvvenire за лучший фильм
    Номинации (1):
  • Золотой лев-
    Европейская киноакадемия, 2003 год
    Победитель (1):
  • Приз международной ассоциации кинокритиков (ФИПРЕССИ)-

Исходник 7,65 GB



x264

---[NoImage] raw [info]: 708x572p 64:45 @ 25/1 fps (cfr)
---[NoImage] x264 [info]: using SAR=64/45
---[NoImage] x264 [info]: using cpu capabilities: MMX2 SSE2Fast SSSE3 SSE4.2 AVX
---[NoImage] x264 [info]: profile High, level 4.1
---[NoImage]
---[NoImage] x264 [info]: frame I:914 Avg QP:15.88 size: 39574
---[NoImage] x264 [info]: frame P:32557 Avg QP:16.31 size: 23574
---[NoImage] x264 [info]: frame B:120079 Avg QP:17.24 size: 7732
---[NoImage] x264 [info]: consecutive B-frames: 1.8% 1.8% 10.9% 14.0% 16.7% 41.9% 7.6% 1.2% 2.1% 1.1% 0.5% 0.3% 0.1%
---[NoImage] x264 [info]: mb I I16..4: 13.8% 44.4% 41.9%
---[NoImage] x264 [info]: mb P I16..4: 3.9% 13.2% 8.3% P16..4: 38.6% 13.9% 5.6% 1.9% 0.2% skip:14.5%
---[NoImage] x264 [info]: mb B I16..4: 0.6% 2.1% 1.0% B16..8: 20.3% 15.3% 2.6% direct: 7.0% skip:51.0% L0:28.7% L1:35.8% BI:35.5%
---[NoImage] x264 [info]: 8x8 transform intra:52.5% inter:38.1%
---[NoImage] x264 [info]: direct mvs spatial:100.0% temporal:0.0%
---[NoImage] x264 [info]: coded y,uvDC,uvAC intra: 79.5% 60.8% 34.1% inter: 25.1% 13.2% 5.0%
---[NoImage] x264 [info]: i16 v,h,dc,p: 26% 13% 28% 33%
---[NoImage] x264 [info]: i8 v,h,dc,ddl,ddr,vr,hd,vl,hu: 33% 13% 19% 4% 5% 8% 4% 8% 6%
---[NoImage] x264 [info]: i4 v,h,dc,ddl,ddr,vr,hd,vl,hu: 33% 20% 24% 3% 4% 6% 3% 4% 3%
---[NoImage] x264 [info]: i8c dc,h,v,p: 21% 34% 27% 18%
---[NoImage] x264 [info]: Weighted P-Frames: Y:4.5% UV:1.5%
---[NoImage] x264 [info]: ref P L0: 47.2% 4.8% 19.4% 5.0% 6.0% 3.3% 4.1% 1.9% 2.5% 1.6% 2.1% 1.6% 0.4% 0.0%
---[NoImage] x264 [info]: ref B L0: 88.3% 7.1% 1.5% 0.9% 0.6% 0.5% 0.4% 0.3% 0.2% 0.2% 0.1%
---[NoImage] x264 [info]: ref B L1: 97.8% 2.2%
---[NoImage] x264 [info]: kb/s:2256.06
---[NoImage] encoded 153550 frames, 4.89 fps, 2256.06 kb/s

MediaInfo

General
Unique ID : 171028998680105284706866735302470393278 (0x80AAFCAB7C3C737B8BA3495DBE51DDBE)
Complete name : Buongiorno, notte_( Good Morning, Night)_2003_DVDRip-AVC_.mkv
Format : Matroska
Format version : Version 4 / Version 2
File size : 2.17 GiB
Duration : 1h 42mn
Overall bit rate : 3 028 Kbps
Encoded date : UTC 2013-05-16 10:01:11
Writing application : mkvmerge v6.1.0 ('Old Devil') built on Mar 2 2013 14:32:37
Writing library : libebml v1.3.0 + libmatroska v1.4.0
Video
ID : 1
Format : AVC
Format/Info : Advanced Video Codec
Format profile : High@L4.1
Format settings, CABAC : Yes
Format settings, ReFrames : 12 frames
Codec ID : V_MPEG4/ISO/AVC
Duration : 1h 42mn
Bit rate : 2 200 Kbps
Width : 708 pixels
Height : 572 pixels
Display aspect ratio : 16:9
Original display aspect ratio : 16:9
Frame rate mode : Constant
Frame rate : 25.000 fps
Color space : YUV
Chroma subsampling : 4:2:0
Bit depth : 8 bits
Scan type : Progressive
Bits/(Pixel*Frame) : 0.217
Stream size : 1.57 GiB (73%)
Title : Buongiorno, notte_( Good Morning, Night)_2003_DVDRip-AVC_ripped_by_rjhlb777
Writing library : x264 core 130 r2273 b3065e6
Encoding settings : cabac=1 / ref=12 / deblock=1:-3:-3 / analyse=0x3:0x133 / me=umh / subme=11 / psy=0 / mixed_ref=0 / me_range=32 / chroma_me=1 / trellis=2 / 8x8dct=1 / cqm=0 / deadzone=6,6 / fast_pskip=0 / chroma_qp_offset=0 / threads=6 / lookahead_threads=1 / sliced_threads=0 / nr=0 / decimate=0 / interlaced=0 / bluray_compat=0 / constrained_intra=0 / bframes=12 / b_pyramid=2 / b_adapt=2 / b_bias=0 / direct=3 / weightb=1 / open_gop=0 / weightp=2 / keyint=240 / keyint_min=24 / scenecut=40 / intra_refresh=0 / rc_lookahead=60 / rc=crf / mbtree=0 / crf=16.1 / qcomp=0.80 / qpmin=0 / qpmax=69 / qpstep=4 / vbv_maxrate=62500 / vbv_bufsize=78125 / crf_max=0.0 / nal_hrd=none / ip_ratio=1.10 / pb_ratio=1.10 / aq=1:0.50
Language : Italian
Default : Yes
Forced : No
Audio #1
ID : 2
Format : AC-3
Format/Info : Audio Coding 3
Mode extension : CM (complete main)
Format settings, Endianness : Big
Codec ID : A_AC3
Duration : 1h 42mn
Bit rate mode : Constant
Bit rate : 384 Kbps
Channel(s) : 6 channels
Channel positions : Front: L C R, Side: L R, LFE
Sampling rate : 48.0 KHz
Bit depth : 16 bits
Compression mode : Lossy
Stream size : 281 MiB (13%)
Title : MVO
Language : Russian
Default : Yes
Forced : No
Audio #2
ID : 3
Format : AC-3
Format/Info : Audio Coding 3
Mode extension : CM (complete main)
Format settings, Endianness : Big
Codec ID : A_AC3
Duration : 1h 42mn
Bit rate mode : Constant
Bit rate : 384 Kbps
Channel(s) : 6 channels
Channel positions : Front: L C R, Side: L R, LFE
Sampling rate : 48.0 KHz
Bit depth : 16 bits
Compression mode : Lossy
Stream size : 281 MiB (13%)
Title : Original
Language : Italian
Default : No
Forced : No
Text
ID : 4
Format : VobSub
Codec ID : S_VOBSUB
Codec ID/Info : The same subtitle format used on DVDs
Language : English
Default : No
Forced : No
Menu
00:00:00.000 : it:Chapter 1
00:06:57.000 : it:Chapter 2
00:17:03.240 : it:Chapter 3
00:28:06.240 : it:Chapter 4
00:40:33.480 : it:Chapter 5
00:49:55.640 : it:Chapter 6
00:56:38.840 : it:Chapter 7
01:05:14.280 : it:Chapter 8
01:10:05.720 : it:Chapter 9
01:16:04.600 : it:Chapter 10
01:24:31.920 : it:Chapter 11
01:37:58.600 : it:Chapter 12

Скриншот c названием фильма

-
Показать сообщения:    

Текущее время: Сегодня 06:18

Часовой пояс: GMT



Вы не можете начинать темы
Вы не можете отвечать на сообщения
Вы не можете редактировать свои сообщения
Вы не можете удалять свои сообщения
Вы не можете голосовать в опросах
Вы не можете прикреплять файлы к сообщениям
Вы не можете скачивать файлы