Важное объявление!
У Нас Все раздачи мультитрекерные, при нуле пиров в релизах, можете смело вставать на закачку!
 
Автор Сообщение

HUNTER

Стаж:
4 года 4 месяца
Сообщений:
56853

Репутация: 101

[+] [-]
Вне форума [Профиль] [ЛС]

Звонарь из Нотр-Дама / Der Glockner von Notre Dame
Страна: Германия
Жанр: мультфильм, для самых маленьких
Продолжительность: 00:50:06
Год выпуска: 1996
Перевод: Профессиональный (дублированный)
Русские субтитры: нет

Режиссёр: Людвиг Икерт / Ludwig Ickert
Описание: Однажды к самому красивому собору Парижа Нотр-Дам, принесли брошенного ребенка. Маленький мальчик был настолько уродлив, что никто из горожан не решился взять его домой . Тогда аббат собора сжалился над малышом и взял era к себе. Он назвал его Квазимодо. Шли годы, Квазимодо вырос. Он никогда не покидал церковь, потому что люди не любили его и часто смеялись над бедным мальчиком. Квазимодо отвечал им взаимностью и старался как можно меньше показываться на улице. Но однажды несчастный горбун увидел танцующую цыганку Эсмиральду, и его сердце навсегда оказалось покорено её красотой, Квазимодо локлялся, что будет помогать и защищать прекрасную девушку. А тем временем над Эсмиральдой нависла смертельная опасность. Суд Парижа обвинил её в том, что она ведьма и приговорил цыганку к сожжению на костре. Квазимодо спасает Эсмиральду и её маленького любимого козлика от неминуемой гибели, но преследователи не сдаются...
Качество: DVDRip
Формат: AVI
Видео: 640x464 (1.38:1), 25 fps, XviD build 73 ~1872 kbps avg, 0.25 bit/pixel
Аудио: 48 kHz, AC3 Dolby Digital, 2/0 (L,R) ch, ~192 kbps
Субтитры: отсутствуют

Подробные технические данные

ОбщееПолное имя : H:\Der.Glockner.von.Notre.Dame.1996.dvdrip_[745]_[teko].aviФормат : AVIФормат/Информация : Audio Video InterleaveРазмер файла : 743 МбайтПродолжительность : 50 м.Общий поток : 2075 Кбит/секПрограмма кодирования : VirtualDubMod 1.5.10.3 | www.virtualdub-fr.org || (build 2550/release)Библиотека кодирования : VirtualDubMod build 2550/release
ВидеоИдентификатор : 0Формат : MPEG-4 VisualПрофиль формата : Advanced Simple@L5Параметр BVOP формата : 2Параметр QPel формата : НетПараметр GMC формата : Без точки переходаПараметр матрицы формата : ВыборочнаяИдентификатор кодека : XVIDИдентификатор кодека/Подсказка : XviDПродолжительность : 50 м.Битрейт : 1873 Кбит/секШирина : 640 пикселейВысота : 464 пикселяСоотношение сторон : 1,379Частота кадров : 25,000 кадров/секЦветовое пространство : YUVСубдискретизация насыщенности : 4:2:0Битовая глубина : 8 битТип развёртки : ПрогрессивнаяМетод сжатия : С потерямиБит/(Пиксели*Кадры) : 0.252Размер потока : 671 Мбайт (90%)Библиотека кодирования : XviD 73
АудиоИдентификатор : 1Формат : AC-3Формат/Информация : Audio Coding 3Расширение режима : CM (complete main)Параметр Endianness формата : BigИдентификатор кодека : 2000Продолжительность : 50 м.Вид битрейта : ПостоянныйБитрейт : 192 Кбит/секКаналы : 2 каналаРасположение каналов : Front: L RЧастота : 48,0 КГцБитовая глубина : 16 битМетод сжатия : С потерямиРазмер потока : 68,8 Мбайт (9%)Выравнивание : Разделение по промежуткамПродолжительность промежутка : 40 мс. (1,00 видеокадр)Время предзагрузки промежутка : 500 мс.
Релиз группы:
--

_________________
Показать сообщения:    

Текущее время: Сегодня 15:30

Часовой пояс: GMT



Вы не можете начинать темы
Вы не можете отвечать на сообщения
Вы не можете редактировать свои сообщения
Вы не можете удалять свои сообщения
Вы не можете голосовать в опросах
Вы не можете прикреплять файлы к сообщениям
Вы не можете скачивать файлы
Наши партнеры: интернет магазин Ивановского трикотажа textilla.ru