Важное объявление!
У Нас Все раздачи мультитрекерные, при нуле пиров в релизах, можете смело вставать на закачку!
 
Автор Сообщение

HUNTER

Стаж:
4 года 4 месяца
Сообщений:
56829

Репутация: 101

[+] [-]
Вне форума [Профиль] [ЛС]

Зверополис / Zootopia-
Страна: США
Жанр: мультфильм, комедия, приключения
Год выпуска: 2016
Продолжительность: 01:48:32-Перевод 1: Профессиональный (дублированный)
Перевод 2: Авторский (одноголосый закадровый) - Юрий Сербин-Режиссеры: Байрон Ховард, Рич Мур, Джаред Буш / Jared Bush, Byron Howard, Rich Moore
Роли озвучивали: Джиннифер Гудвин, Джейсон Бейтман, Идрис Эльба, Дженни Слейт, Нейт Торренс, Бонни Хант, Дон Лейк, Томми Чонг, Дж.К. Симмонс, Октавия Спенсер...-Описание: Добро пожаловать в Зверополис — современный город, населенный самыми разными животными, от огромных слонов до крошечных мышек. Зверополис разделен на районы, полностью повторяющие естественную среду обитания разных жителей — здесь есть и элитный район Площадь Сахары и неприветливый Тундратаун. В этом городе появляется новый офицер полиции, жизнерадостная зайчиха Джуди Хоппс, которая с первых дней работы понимает, как сложно быть маленькой и пушистой среди больших и сильных полицейских. Джуди хватается за первую же возможность проявить себя, несмотря на то, что ее партнером будет болтливый хитрый лис Ник Уайлд. Вдвоем им предстоит раскрыть сложное дело, от которого будет зависеть судьба всех обитателей Зверополиса.-Доп. информация:
- Ремукс собран на основе BD EUR издания. Использован оригинальный англоязычный видеоряд.
- За перевод Юрия Сербина спасибо участникам форума e180: ultrajeka, chontvari, luka69, Role, hdrmv12, Volshebnik, phaeton77, Petro0999, пуля, Slimka, dir, I_Am_Hell, ZeDOK, maximus10-99, ANISKIN50, PiratGary1980, uchitel538, Dyermaker, MyxAmoP, Tagansky, DB73.- | Релиз: -Семпл: http://sendfile.su/1258722-Тип релиза: BDRemux 1080p
Контейнер: MKV
Видео: MPEG-4 AVC Video / 23940 kbps / 1080p / 23,976 fps / 16:9 / High Profile 4.1
Аудио 1: Русский / Dolby Digital Audio / 5.1 / 48 kHz / 640 kbps | Дубляж
Аудио 2: Українська / DTS-HD Master Audio / 5.1 / 48 kHz / 4018 kbps / 24-bit (DTS Core: 5.1 / 48 kHz / 1509 kbps / 24-bit) | Дубляж
Аудио 3: Русский / DTS-HD Master Audio / 7.1 / 48 kHz / 4822 kbps / 24-bit (DTS Core: 5.1 / 48 kHz / 1509 kbps / 24-bit) | Ю. Сербин
Аудио 4: English / DTS-HD Master Audio / 7.1 / 48 kHz / 4763 kbps / 24-bit (DTS Core: 5.1 / 48 kHz / 1509 kbps / 24-bit) | Original
Аудио 5: English / Dolby Digital Audio / 2.0 / 48 kHz / 320 kbps / Dolby Surround | Descriptive
Cубтитры: русские, українські, English (Full, SDH, SDH Colored)

MediaInfo

GeneralUnique ID : 187964054189821707264111819538266319273 (0x8D688F5EFEBF3534956CAACFA14FE9A9)Complete name : Zootopia.2016.1080p.BDRemux-rutracker.mkvFormat : MatroskaFormat version : Version 4 / Version 2File size : 29.2 GiBDuration : 1 h 48 minOverall bit rate mode : VariableOverall bit rate : 38.5 Mb/sMovie name : Zootopia.2016.1080p.BDRemux-rutrackerEncoded date : UTC 2016-08-20 08:04:56Writing application : mkvmerge v8.3.0 ('Over the Horizon') 64bitWriting library : libebml v1.3.1 + libmatroska v1.4.2
VideoID : 1Format : AVCFormat/Info : Advanced Video CodecFormat profile : High@L4.1Format settings, CABAC : YesFormat settings, ReFrames : 4 framesCodec ID : V_MPEG4/ISO/AVCDuration : 1 h 48 minBit rate mode : VariableMaximum bit rate : 36.0 Mb/sWidth : 1 920 pixelsHeight : 1 080 pixelsDisplay aspect ratio : 16:9Frame rate mode : ConstantFrame rate : 23.976 (24000/1001) FPSColor space : YUVChroma subsampling : 4:2:0Bit depth : 8 bitsScan type : ProgressiveLanguage : EnglishDefault : YesForced : No
Audio #1ID : 2Format : AC-3Format/Info : Audio Coding 3Mode extension : CM (complete main)Format settings, Endianness : BigCodec ID : A_AC3Duration : 1 h 48 minBit rate mode : ConstantBit rate : 640 kb/sChannel(s) : 6 channelsChannel positions : Front: L C R, Side: L R, LFESampling rate : 48.0 kHzFrame rate : 31.250 FPS (1536 spf)Compression mode : LossyStream size : 497 MiB (2%)Title : ДубляжLanguage : RussianDefault : YesForced : No
Audio #2ID : 3Format : DTSFormat/Info : Digital Theater SystemsFormat profile : MA / CoreMode : 16Format settings, Endianness : BigCodec ID : A_DTSDuration : 1 h 48 minBit rate mode : Variable / ConstantBit rate : Unknown / 1 509 kb/sChannel(s) : 6 channelsChannel positions : Front: L C R, Side: L R, LFESampling rate : 48.0 kHzFrame rate : 93.750 FPS (512 spf)Bit depth : 24 bitsCompression mode : Lossless / LossyTitle : ДубляжLanguage : UkrainianDefault : NoForced : No
Audio #3ID : 4Format : DTSFormat/Info : Digital Theater SystemsFormat profile : MA / CoreMode : 16Format settings, Endianness : BigCodec ID : A_DTSDuration : 1 h 48 minBit rate mode : Variable / ConstantBit rate : Unknown / 1 509 kb/sChannel(s) : 8 channels / 6 channelsChannel positions : Front: L C R, Side: L R, Back: L R, LFE / Front: L C R, Side: L R, LFESampling rate : 48.0 kHzFrame rate : 93.750 FPS (512 spf)Bit depth : 24 bitsCompression mode : Lossless / LossyTitle : Закадровый | Ю. СербинLanguage : RussianDefault : NoForced : No
Audio #4ID : 5Format : DTSFormat/Info : Digital Theater SystemsFormat profile : MA / CoreMode : 16Format settings, Endianness : BigCodec ID : A_DTSDuration : 1 h 48 minBit rate mode : Variable / ConstantBit rate : Unknown / 1 509 kb/sChannel(s) : 8 channels / 6 channelsChannel positions : Front: L C R, Side: L R, Back: L R, LFE / Front: L C R, Side: L R, LFESampling rate : 48.0 kHzFrame rate : 93.750 FPS (512 spf)Bit depth : 24 bitsCompression mode : Lossless / LossyTitle : OriginalLanguage : EnglishDefault : NoForced : No
Audio #5ID : 6Format : AC-3Format/Info : Audio Coding 3Format profile : Dolby DigitalMode extension : CM (complete main)Format settings, Endianness : BigCodec ID : A_AC3Duration : 1 h 48 minBit rate mode : ConstantBit rate : 320 kb/sChannel(s) : 2 channelsChannel positions : Front: L RSampling rate : 48.0 kHzFrame rate : 31.250 FPS (1536 spf)Compression mode : LossyStream size : 248 MiB (1%)Title : DescriptiveLanguage : EnglishDefault : NoForced : No
Text #1ID : 7Format : UTF-8Codec ID : S_TEXT/UTF8Codec ID/Info : UTF-8 Plain TextLanguage : RussianDefault : NoForced : No
Text #2ID : 8Format : UTF-8Codec ID : S_TEXT/UTF8Codec ID/Info : UTF-8 Plain TextTitle : GedetLanguage : UkrainianDefault : NoForced : No
Text #3ID : 9Format : UTF-8Codec ID : S_TEXT/UTF8Codec ID/Info : UTF-8 Plain TextTitle : FullLanguage : EnglishDefault : NoForced : No
Text #4ID : 10Format : UTF-8Codec ID : S_TEXT/UTF8Codec ID/Info : UTF-8 Plain TextTitle : SDHLanguage : EnglishDefault : NoForced : No
Text #5ID : 11Format : UTF-8Codec ID : S_TEXT/UTF8Codec ID/Info : UTF-8 Plain TextTitle : SDH ColoredLanguage : EnglishDefault : NoForced : No
Menu00:00:00.000 : en:Prologue00:00:59.559 : en:Gideon Grey00:05:50.100 : en:The Police Academy00:10:05.563 : en:Welcome to Zootopia00:14:31.537 : en:Meter Maid Duty00:18:24.019 : en:Pawpsicles00:26:03.353 : en:The Weasel Chase00:30:57.439 : en:It's Called A Hustle00:37:07.100 : en:The Naturalist Club00:40:43.441 : en:Department Of 1000:44:31.752 : en:Mr. Big00:51:40.430 : en:Manchas Goes Savage00:55:40.378 : en:The Gondola01:00:48.269 : en:Help from Bellwether01:03:37.855 : en:Cliffside Asylum01:09:19.822 : en:We Cracked the Case01:13:39.165 : en:Hopps Gives Up01:17:07.372 : en:Hopps' Apology01:21:52.366 : en:Doug's Laboratory01:28:19.169 : en:The Natural History Museum01:32:43.433 : en:Epilogue01:36:12.141 : en:End Credits

Скриншоты


_________________
Показать сообщения:    

Текущее время: Сегодня 09:11

Часовой пояс: GMT



Вы не можете начинать темы
Вы не можете отвечать на сообщения
Вы не можете редактировать свои сообщения
Вы не можете удалять свои сообщения
Вы не можете голосовать в опросах
Вы не можете прикреплять файлы к сообщениям
Вы не можете скачивать файлы