Важное объявление!
У Нас Все раздачи мультитрекерные, при нуле пиров в релизах, можете смело вставать на закачку!
 
Автор Сообщение

HUNTER

Стаж:
4 года 4 месяца
Сообщений:
56720

Репутация: 101

[+] [-]
Вне форума [Профиль] [ЛС]

Звездный патруль: Легенда об Орине / Звездный охотник: Легенда об Орине / Starchaser: The Legend of Orin
Страна: Южная Корея, США.
Жанр: мультфильм, фантастика, приключения
Продолжительность: 01:40:15
Год выпуска: 1985
-
Перевод 1: Профессиональный (многоголосый закадровый)
Перевод 2: Авторский (одноголосый закадровый) Антон Алексеев
Русские субтитры: есть (2 вида)
Оригинальная аудиодорожка: английский
-
Режиссёр: Стивен Хан / Steven Hahn
Роли озвучивали: Джо Колиган, Кармен Ардженциано, Ноэль Норт, Энтони Де Лонгис, Tyke Caravelli, Лес Тремейн, Кен Сэнсом, Джон Мошитта мл., Дэрил Бартли, Джон Гарвуд.
-
Описание: Глубоко под землей в Мире Шахты живут люди, никогда не видевшие солнечного света и не верящие в его существование. Под управлением надсмотрщиков-роботов жестокого повелителя Зайгона они, каждый день рискуя своей жизнью, добывают для него рубидимитовые кристаллы, получая взамен жалкие подачки еды. И только один из них, Орин, случайно обнаружив волшебную рукоятку от меча, решает бросить вызов Зайгону, найти дорогу во внешний мир и освободить своих соплеменников.
-
Доп. информация:
-
Качество: DVDRip (DVD5/Bobropandavar)
Формат: AVI
Видео: 688x288 (2.39:1), 23.976 fps, XviD build 65 ~1682 kbps avg, 0.35 bit/pixel
Аудио 1: 48 kHz, AC3 Dolby Digital, 2/0 (L,R) ch, ~192 kbps MVO
Аудио 2: 48 kHz, AC3 Dolby Digital, 2/0 (L,R) ch, ~192 kbps ENG
Аудио 3: 48 kHz, AC3 Dolby Digital, 2/0 (L,R) ch, ~192 kbps AVO Антон Алексеев Отдельно
Субтитры: полные и форсированные (для MVO)

Подробные технические данные

Format : AVIFormat/Info : Audio Video InterleaveFile size : 1.46 GiBDuration : 1h 40mnOverall bit rate : 2 081 KbpsWriting application : VirtualDubMod 1.5.10.2 (build 2542/release)Writing library : VirtualDubMod build 2542/release
VideoID : 0Format : MPEG-4 VisualFormat profile : Advanced Simple@L5Format settings, BVOP : 1Format settings, QPel : NoFormat settings, GMC : No warppointsFormat settings, Matrix : CustomCodec ID : XVIDCodec ID/Hint : XviDDuration : 1h 40mnBit rate : 1 683 KbpsWidth : 688 pixelsHeight : 288 pixelsDisplay aspect ratio : 2.40:1Frame rate : 23.976 fpsColor space : YUVChroma subsampling : 4:2:0Bit depth : 8 bitsScan type : ProgressiveCompression mode : LossyBits/(Pixel*Frame) : 0.354Stream size : 1.18 GiB (81%)Writing library : XviD 65
Audio #1ID : 1Format : AC-3Format/Info : Audio Coding 3Mode extension : CM (complete main)Format settings, Endianness : BigCodec ID : 2000Duration : 1h 40mnBit rate mode : ConstantBit rate : 192 KbpsChannel(s) : 2 channelsChannel positions : Front: L RSampling rate : 48.0 KHzBit depth : 16 bitsCompression mode : LossyStream size : 138 MiB (9%)Alignment : Split accross interleavesInterleave, duration : 42 ms (1.00 video frame)Interleave, preload duration : 500 ms
Audio #2ID : 2Format : AC-3Format/Info : Audio Coding 3Format profile : Dolby DigitalMode extension : CM (complete main)Format settings, Endianness : BigCodec ID : 2000Duration : 1h 40mnBit rate mode : ConstantBit rate : 192 KbpsChannel(s) : 2 channelsChannel positions : Front: L RSampling rate : 48.0 KHzBit depth : 16 bitsCompression mode : LossyStream size : 137 MiB (9%)Alignment : Split accross interleavesInterleave, duration : 42 ms (1.00 video frame)Interleave, preload duration : 500 ms

Скриншоты


_________________
Показать сообщения:    

Текущее время: Сегодня 06:08

Часовой пояс: GMT



Вы не можете начинать темы
Вы не можете отвечать на сообщения
Вы не можете редактировать свои сообщения
Вы не можете удалять свои сообщения
Вы не можете голосовать в опросах
Вы не можете прикреплять файлы к сообщениям
Вы не можете скачивать файлы