Важное объявление!
У Нас Все раздачи мультитрекерные, при нуле пиров в релизах, можете смело вставать на закачку!
 
Автор Сообщение

HUNTER

Стаж:
4 года 4 месяца
Сообщений:
56822

Репутация: 101

[+] [-]
Вне форума [Профиль] [ЛС]

Звездный отряд
Дата/Год выпуска: 2003
Страна: Россия
Жанр: документальный сериал
Продолжительность: 6 х 39 мин
Перевод: Не требуется
Режиссер: Леонид Рыжков, Юрий Олиневич
Описание: Новые тайны первого полета советского человека в космос — мифы, легенды и реальные факты.
Например, о том, что перед самым стартом «Востока» вдруг выяснилось, что крышка люка неплотно прикрыта. А это означало гибель Гагарина через несколько часов. Но неполадку вовремя замечают и устраняют.
На посадке корабль начинает трясти, капсула не отделяется от корабля. Гагарин мысленно прощается с жизнью. Лишь через 10 минут происходит отделение. На этом неприятности не заканчиваются.
Когда Гагарин приземлялся, он начал задыхаться, потому что клапан в дыхательном аппарате не сработал...
Доп. информация: Автор фильма - Александр Габнис
качество: TVRip
формат: AVI
Видео: MPEG-4 Visual at 1500 Кбит/сек, 720 x 544 (1.324) at 25.000 fps
Аудио: MPEG Audio at 128 Кбит/сек, 2 канала, 48,0 КГц

Список выпусков/серий

"Земные пришельцы"
"Самые первые"
"Мифы о космонавтах"
"Космонавты номер ноль"
"Потери. Подвиги. Победы"
"Юрий Гагарин. Жизнь и смерть"

MediaInfo

ОбщееПолное имя : T:\Мои раздачи\Звездный отряд\Звездный отряд (2003)\Фильм 1. Земные пришельцы.aviФормат : AVIФормат/Информация : Audio Video InterleaveРазмер файла : 455 МбайтПродолжительность : 38 м.Общий поток : 1638 Кбит/секПрограмма кодирования : VirtualDubMod 1.5.10.3 | www.virtualdub-fr.org || (build 2550/release)Библиотека кодирования : VirtualDubMod build 2550/release
ВидеоИдентификатор : 0Формат : MPEG-4 VisualПрофиль формата : Advanced Simple@L5Параметр BVOP формата : 2Параметр QPel формата : НетПараметр GMC формата : Без точки переходаПараметр матрицы формата : Default (MPEG)Идентификатор кодека : XVIDИдентификатор кодека/Подсказка : XviDПродолжительность : 38 м.Битрейт : 1500 Кбит/секШирина : 720 пикселейВысота : 544 пикселяСоотношение сторон : 4:3Частота кадров : 25,000 кадров/секЦветовое пространство : YUVСубдискретизация насыщенности : 4:2:0Битовая глубина : 8 битТип развёртки : ПрогрессивнаяМетод сжатия : С потерямиБит/(Пиксели*Кадры) : 0.153Размер потока : 417 Мбайт (92%)Библиотека кодирования : XviD 1.2.1 (UTC 2008-12-04)
АудиоИдентификатор : 1Формат : MPEG AudioВерсия формата : Version 1Профиль формата : Layer 3Идентификатор кодека : 55Идентификатор кодека/Подсказка : MP3Продолжительность : 38 м.Вид битрейта : ПостоянныйБитрейт : 128 Кбит/секКаналы : 2 каналаЧастота : 48,0 КГцМетод сжатия : С потерямиРазмер потока : 35,6 Мбайт (8%)Выравнивание : Соединение по промежуткамПродолжительность промежутка : 40 мс. (1,00 видеокадр)Время предзагрузки промежутка : 504 мс.Библиотека кодирования : LAME3.99rНастройки программы : -m s -V 4 -q 2 -lowpass 17 -b 128

Скриншоты


_________________
Показать сообщения:    

Текущее время: Сегодня 22:43

Часовой пояс: GMT



Вы не можете начинать темы
Вы не можете отвечать на сообщения
Вы не можете редактировать свои сообщения
Вы не можете удалять свои сообщения
Вы не можете голосовать в опросах
Вы не можете прикреплять файлы к сообщениям
Вы не можете скачивать файлы