Важное объявление!
У Нас Все раздачи мультитрекерные, при нуле пиров в релизах, можете смело вставать на закачку!
 
Автор Сообщение

HUNTER

Стаж:
4 года 4 месяца
Сообщений:
56848

Репутация: 101

[+] [-]
Вне форума [Профиль] [ЛС]

---

Звездные войны: Эпизод I - Призрачная угроза | Star Wars: Episode I - The Phantom Menace

--
Звездные войны: Эпизод I - Призрачная угроза | Star Wars: Episode I - The Phantom Menace

«У каждой саги есть начало»

Год выпуска: 1999
Страна: США
Жанр: Фантастика, Боевик, Фэнтези, Приключения
Продолжительность: 02:16
Перевод: Профессиональный (полное дублирование)
Субтитры: Russian-- В ролях: Лиам Нисон, Юэн МакГрегор, Натали Портман, Джейк Ллойд, Пернилла Аугуст, Фрэнк Оз, Иэн МакДайармид, Оливер Форд Дэвис, Рэй Парк, Хью Куарши, Ахмед Бест, Энтони Дэниелс
Режиссёр: Джордж Лукас | George Lucas -- Описание:

Первый эпизод знакомит нас с юным Анакином Скайуокером, мальчиком с особым даром, не осознающим, что путешествие, в которое он отправился, превратит его в зловещего Дарта Вейдера. Оби-Ван Кеноби, мудрый старый джедай из первых частей фильма, пока еще только молодой отважный ученик. Это то самое время, когда рыцари-джедаи являются хранителями мира и спокойствия в нестабильной галактике, и юная королева сражается за спасение своего народа. А в тени таится темная сила, выжидая нужного момента для атаки.
Качество: HDTVRip
Формат: MKV
Видео кодек: H.264
Аудио кодек: AC3
Видео: 1920x816; 23.976; 7794 Кбит/сек
Аудио: Russian AC3, 48 KHz, Dolby, 6 ch, 448 Kbps (дубляж)
Аудио: Russian AC3, 48 KHz, Dolby, 6 ch, 448 Kbps (Tycoon)
Аудио: Russian AC3, 48 KHz, Dolby, 6 ch, 448 Kbps (Гаврилов)
Аудио: English AC3, 48 KHz, Dolby, 6 ch, 448 Kbps

Рейтинг

Награды


Оскар, 2000 год
Номинации (3):
››› Лучший звук
››› Лучший монтаж звука
››› Лучшие визуальные эффекты--
Премия канала «MTV», 2000 год
Победитель (1):
››› Лучшая экшн-сцена

Номинации (2):
››› Лучшая драка
››› Лучший злодей (Рэй Парк)--
Золотая малина, 2000 год
Победитель (1):
››› Худшая мужская роль второго плана
(Ахмед Бест)
Номинации (6):
››› Худший фильм
››› Худшая мужская роль второго плана (Джейк Ллойд)
››› Худшая женская роль второго плана (София Коппола)
››› Худший режиссер (Джордж Лукас)
››› Худший сценарий
››› Худшая экранная пара (Натали Портман, Джейк Ллойд)--
Британская академия, 2000 год
Номинации (2):
››› Лучший звук
››› Лучшие визуальные эффекты

MediaInfo


F:\Скачанное\Кино\Star Wars.Episodes Complete\Star Wars Episode I The Phantom Menace (1999 1080p Rus Eng).mkv
General
Complete name : F:\Скачанное\Кино\Star Wars.Episodes Complete\Star Wars Episode I The Phantom Menace (1999 1080p Rus Eng).mkv
Format : Matroska
File size : 9.30 GiB
Duration : 2h 16mn
Overall bit rate : 9 782 Kbps
Encoded date : UTC 2009-06-10 12:10:06
Writing application : mkvmerge v1.7.0 ('What Do You Take Me For') built on Apr 28 2006 17:20:19
Writing library : libebml v0.7.7 + libmatroska v0.8.0
Video #1
ID : 1
Format : AVC
Format/Info : Advanced Video Codec
Format profile : [url=mailto:High@L5.1]High@L5.1[/url]
Format settings, CABAC : Yes
Format settings, ReFrames : 8 frames
Muxing mode : Container profile=Unknown@5.1
Codec ID : V_MPEG4/ISO/AVC
Duration : 2h 16mn
Bit rate : 7 795 Kbps
Nominal bit rate : 8 329 Kbps
Width : 1 920 pixels
Height : 816 pixels
Display aspect ratio : 2.35:1
Frame rate : 23.976 fps
Original frame rate : 25.000 fps
Color space : YUV
Chroma subsampling : 4:2:0
Bit depth : 8 bits
Scan type : Progressive
Bits/(Pixel*Frame) : 0.208
Stream size : 7.41 GiB (80%)
Writing library : x264 core 56 svn-667C
Encoding settings : cabac=1 / ref=5 / deblock=1:-4:-4 / analyse=0x3:0x133 / me=umh / subme=6 / brdo=1 / mixed_ref=1 / me_range=16 / chroma_me=1 / trellis=1 / 8x8dct=1 / cqm=2 / deadzone=4,6 / chroma_qp_offset=0 / threads=3 / nr=0 / decimate=1 / mbaff=0 / bframes=3 / b_pyramid=1 / b_adapt=1 / b_bias=0 / direct=3 / wpredb=1 / bime=1 / keyint=250 / keyint_min=25 / scenecut=40(pre) / rc=2pass / bitrate=8329 / ratetol=1.0 / rceq='blurCplx^(1-qComp)' / qcomp=0.60 / qpmin=10 / qpmax=51 / qpstep=4 / cplxblur=20.0 / qblur=0.5 / ip_ratio=1.40 / pb_ratio=1.30 / zones=187687,195786,b=0.15 / aq=1:0.3:15.0
Language : English
Audio #2
ID : 2
Format : AC-3
Format/Info : Audio Coding 3
Mode extension : CM (complete main)
Codec ID : A_AC3
Duration : 2h 16mn
Bit rate mode : Constant
Bit rate : 448 Kbps
Channel(s) : 6 channels
Channel positions : Front: L C R, Side: L R, LFE
Sampling rate : 48.0 KHz
Bit depth : 16 bits
Video delay : 24ms
Stream size : 436 MiB (5%)
Title : Dubbed
Audio #3
ID : 3
Format : AC-3
Format/Info : Audio Coding 3
Mode extension : CM (complete main)
Codec ID : A_AC3
Duration : 2h 16mn
Bit rate mode : Constant
Bit rate : 448 Kbps
Channel(s) : 6 channels
Channel positions : Front: L C R, Side: L R, LFE
Sampling rate : 48.0 KHz
Bit depth : 16 bits
Video delay : 24ms
Stream size : 436 MiB (5%)
Title : Tycoon
Audio #4
ID : 4
Format : AC-3
Format/Info : Audio Coding 3
Mode extension : CM (complete main)
Codec ID : A_AC3
Duration : 2h 16mn
Bit rate mode : Constant
Bit rate : 448 Kbps
Channel(s) : 6 channels
Channel positions : Front: L C R, Side: L R, LFE
Sampling rate : 48.0 KHz
Bit depth : 16 bits
Video delay : 24ms
Stream size : 436 MiB (5%)
Title : Gavrilov
Audio #5
ID : 5
Format : AC-3
Format/Info : Audio Coding 3
Mode extension : CM (complete main)
Codec ID : A_AC3
Duration : 2h 16mn
Bit rate mode : Constant
Bit rate : 448 Kbps
Channel(s) : 6 channels
Channel positions : Front: L C R, Side: L R, LFE
Sampling rate : 48.0 KHz
Bit depth : 16 bits
Stream size : 436 MiB (5%)
Language : English
Text #6
ID : 6
Format : UTF-8
Codec ID : S_TEXT/UTF8
Codec ID/Info : UTF-8 Plain Text
Language : Russian

Скриншоты

Скринлист

Звездные войны: Эпизод II - Атака клонов | Star Wars: Episode II - Attack of the Clones

--
Звездные войны: Эпизод II - Атака клонов | Star Wars: Episode II - Attack of the Clones

«Size matters not. Except on an IMAX Screen.»

Год выпуска: 2002
Страна: СЩА
Жанр: Фантастика, Боевик, Фэнтези, Приключения
Продолжительность: 02:22
Перевод: Профессиональный (полное дублирование)
Субтитры: Russian-- В ролях: Эван МакГрегор, Натали Портман, Хейден Кристенсен, Кристофер Ли, Сэмюэл Л. Джексон, Фрэнк Оз, Иэн МакДайармид, Пернилла Аугуст, Темуэра Моррисон, Дэниэл Логан
Режиссёр: Джордж Лукас | George Lucas -- Описание:

После событий, описанных в 'Эпизоде I', прошло 10 лет. Галактика - в смятении. Тысячи звездных систем угрожают выйти из состава Галакитческой республики. В этот переломный момент, когда могущественные силы готовятся сойтись в смертельной битве за власть, судьба снова сводит Анакина и Падме. Они вынуждены выбирать между своим долгом, честью и любовью, на которую они не имеют права. И выбор, который они сделают, перевернет не только их жизни, но окажется судьбоносным для всей Галактики.
Качество: HDTVRip
Формат: MKV
Видео кодек: H.264
Аудио кодек: AC3
Видео: 1920x816; 23.976; 7439 Кбит/сек
Аудио: Russian AC3, 48 KHz, Dolby, 6 ch, 448 Kbps (дубляж)
Аудио: Russian AC3, 48 KHz, Dolby, 6 ch, 448 Kbps (Tycoon)
Аудио: Russian AC3, 48 KHz, Dolby, 6 ch, 448 Kbps (Гаврилов)
Аудио: English AC3, 48 KHz, Dolby, 6 ch, 448 Kbps

Рейтинг

Награды


Оскар, 2003 год
Номинации (1):
››› Лучшие визуальные эффекты--
Премия канала «MTV», 2003 год
Победитель (1):
››› Лучшая драка

Номинации (2):
››› Лучшая экшн-сцена
››› Лучший виртуальный персонаж — «Йода»--
Золотая малина, 2003 год
Победитель (2):
››› Худшая мужская роль второго плана (Хейден Кристенсен)
››› Худший сценарий

Номинации (5):
››› Худший фильм
››› Худшая женская роль второго плана (Натали Портман)
››› Худший режиссер (Джордж Лукас)
››› Худший римейк/сиквел
››› Худшая экранная пара — «Натали Портман и Хейден Кристенсен»

MediaInfo


F:\Скачанное\Кино\Star Wars.Episodes Complete\Star Wars Episode II Attack Of The Clones (2002 1080p Rus Eng).mkv
General
Complete name : F:\Скачанное\Кино\Star Wars.Episodes Complete\Star Wars Episode II Attack Of The Clones (2002 1080p Rus Eng).mkv
Format : Matroska
File size : 9.36 GiB
Duration : 2h 22mn
Overall bit rate : 9 411 Kbps
Encoded date : UTC 2009-06-10 12:34:43
Writing application : mkvmerge v1.7.0 ('What Do You Take Me For') built on Apr 28 2006 17:20:19
Writing library : libebml v0.7.7 + libmatroska v0.8.0
Video #1
ID : 1
Format : AVC
Format/Info : Advanced Video Codec
Format profile : [url=mailto:High@L5.1]High@L5.1[/url]
Format settings, CABAC : Yes
Format settings, ReFrames : 8 frames
Muxing mode : Container profile=Unknown@5.1
Codec ID : V_MPEG4/ISO/AVC
Duration : 2h 22mn
Bit rate : 7 432 Kbps
Nominal bit rate : 7 940 Kbps
Width : 1 920 pixels
Height : 816 pixels
Display aspect ratio : 2.35:1
Frame rate : 23.976 fps
Original frame rate : 25.000 fps
Color space : YUV
Chroma subsampling : 4:2:0
Bit depth : 8 bits
Scan type : Progressive
Bits/(Pixel*Frame) : 0.198
Stream size : 7.39 GiB (79%)
Writing library : x264 core 56 svn-667C
Encoding settings : cabac=1 / ref=5 / deblock=1:-4:-4 / analyse=0x3:0x133 / me=umh / subme=6 / brdo=1 / mixed_ref=1 / me_range=16 / chroma_me=1 / trellis=1 / 8x8dct=1 / cqm=2 / deadzone=4,6 / chroma_qp_offset=0 / threads=3 / nr=0 / decimate=1 / mbaff=0 / bframes=3 / b_pyramid=1 / b_adapt=1 / b_bias=0 / direct=3 / wpredb=1 / bime=1 / keyint=250 / keyint_min=25 / scenecut=40(pre) / rc=2pass / bitrate=7940 / ratetol=1.0 / rceq='blurCplx^(1-qComp)' / qcomp=0.60 / qpmin=10 / qpmax=51 / qpstep=4 / cplxblur=20.0 / qblur=0.5 / ip_ratio=1.40 / pb_ratio=1.30 / zones=195498,204910,q=26 / aq=1:0.3:15.0
Language : English
Audio #2
ID : 2
Format : AC-3
Format/Info : Audio Coding 3
Mode extension : CM (complete main)
Codec ID : A_AC3
Duration : 2h 22mn
Bit rate mode : Constant
Bit rate : 448 Kbps
Channel(s) : 6 channels
Channel positions : Front: L C R, Side: L R, LFE
Sampling rate : 48.0 KHz
Bit depth : 16 bits
Video delay : 16ms
Stream size : 456 MiB (5%)
Title : Dubbed
Language : Russian
Audio #3
ID : 3
Format : AC-3
Format/Info : Audio Coding 3
Mode extension : CM (complete main)
Codec ID : A_AC3
Duration : 2h 22mn
Bit rate mode : Constant
Bit rate : 448 Kbps
Channel(s) : 6 channels
Channel positions : Front: L C R, Side: L R, LFE
Sampling rate : 48.0 KHz
Bit depth : 16 bits
Video delay : 16ms
Stream size : 456 MiB (5%)
Title : Tycoon
Language : Russian
Audio #4
ID : 4
Format : AC-3
Format/Info : Audio Coding 3
Mode extension : CM (complete main)
Codec ID : A_AC3
Duration : 2h 22mn
Bit rate mode : Constant
Bit rate : 448 Kbps
Channel(s) : 6 channels
Channel positions : Front: L C R, Side: L R, LFE
Sampling rate : 48.0 KHz
Bit depth : 16 bits
Video delay : 16ms
Stream size : 456 MiB (5%)
Title : Gavrilov
Language : Russian
Audio #5
ID : 5
Format : AC-3
Format/Info : Audio Coding 3
Mode extension : CM (complete main)
Codec ID : A_AC3
Duration : 2h 22mn
Bit rate mode : Constant
Bit rate : 448 Kbps
Channel(s) : 6 channels
Channel positions : Front: L C R, Side: L R, LFE
Sampling rate : 48.0 KHz
Bit depth : 16 bits
Stream size : 456 MiB (5%)
Language : English

Скриншоты

Скринлист

Звездные войны: Эпизод III - Месть ситхов | Star Wars: Episode III - Revenge of the Sith

--
Звездные войны: Эпизод III - Месть ситхов | Star Wars: Episode III - Revenge of the Sith
«Сага окончена»
Год выпуска: 2005
Страна: США
Жанр: Фантастика, Боевик, Фэнтези, Приключения
Продолжительность: 02:14:22
Перевод: Профессиональный (полное дублирование)
Субтитры: Russian-- В ролях: Эван МакГрегор, Натали Портман, Хейден Кристенсен, Кристофер Ли, Сэмюэл Л. Джексон, Фрэнк Оз, Иэн МакДайармид, Пернилла Аугуст, Темуэра Моррисон, Дэниэл Логан
Режиссёр: Джордж Лукас | George Lucas -- Описание:

После трёх долгих лет жестоких сражений, Война Клонов близка к завершению. Совет джедаев даёт Оби-Вану Кеноби задание доставить Генерала Гривоса, сурового командующего сепаратистской армии дроидов, в руки правосудия. Тем временем на Корусканте усиливается власть Канцлера Палпатина. Его стремительные политические реформы преобразуют ослабленную войной Республику в могущественную Галактическую Империю. Палпатин открывает Анакину Скайуокеру, своему ближайшему соратнику, истинную сущность могущества и секреты Великой Силы в надежде привлечь его на тёмную сторону...
Качество: HDTVRip
Формат: MKV
Видео кодек: H.264
Аудио кодек: AC3
Видео: 1920x816; 23.976; 7996 Кбит/сек
Аудио: Russian AC3, 48 KHz, Dolby, 6 ch, 448 Kbps (дубляж)
Аудио: Russian AC3, 48 KHz, Dolby, 6 ch, 448 Kbps (Tycoon)
Аудио: Russian AC3, 48 KHz, Dolby, 6 ch, 448 Kbps (Гаврилов)
Аудио: English AC3, 48 KHz, Dolby, 6 ch, 448 Kbps

Рейтинг

Награды

2 «Золотых сателлита» — за звук (Том Майерс, Кристофер Скарабозио, Энди Нелсон, Пол Бринкэт, Бен Бёрт, Мэтью Вуд — Tom Myers, Christopher Scarabosio, Andy Nelson, Paul Brincat, Ben Burt, Matthew Wood) и визуальные эффекты (Джон Нолл, Роджер Гайетт, Роб Коулмен, Брайан Джернард — John Knoll, Roger Guyett, Rob Coleman, Brian Gernard).--
Оскар, 2006 год
Номинации (1):
››› Лучший грим--
Премия канала «MTV», 2006 год
Победитель (1):
››› Лучший злодей
(Хейден Кристенсен)
Номинации (2):
››› Лучшая драка
››› Лучший герой (Юэн МакГрегор)--
Золотая малина, 2006 год
Победитель (1):
››› Худшая мужская роль второго плана
(Хейден Кристенсен)--
Кинонаграды «MTV-Россия», 2006 год
Номинации (1):
Лучший фильм на иностранном языке

MediaInfo


F:\Скачанное\Кино\Star Wars.Episodes Complete\Star Wars Episode III Revenge Of The Sith (2005 1080p Rus Eng).mkv
General
Complete name : F:\Скачанное\Кино\Star Wars.Episodes Complete\Star Wars Episode III Revenge Of The Sith (2005 1080p Rus Eng).mkv
Format : Matroska
File size : 9.26 GiB
Duration : 2h 20mn
Overall bit rate : 9 465 Kbps
Encoded date : UTC 2009-06-10 13:56:40
Writing application : mkvmerge v1.7.0 ('What Do You Take Me For') built on Apr 28 2006 17:20:19
Writing library : libebml v0.7.7 + libmatroska v0.8.0
Video #1
ID : 1
Format : AVC
Format/Info : Advanced Video Codec
Format profile : [url=mailto:High@L5.1]High@L5.1[/url]
Format settings, CABAC : Yes
Format settings, ReFrames : 10 frames
Muxing mode : Container profile=Unknown@5.1
Codec ID : V_MPEG4/ISO/AVC
Duration : 2h 20mn
Bit rate : 7 484 Kbps
Nominal bit rate : 7 996 Kbps
Width : 1 920 pixels
Height : 816 pixels
Display aspect ratio : 2.35:1
Frame rate : 23.976 fps
Original frame rate : 25.000 fps
Color space : YUV
Chroma subsampling : 4:2:0
Bit depth : 8 bits
Scan type : Progressive
Bits/(Pixel*Frame) : 0.199
Stream size : 7.32 GiB (79%)
Writing library : x264 core 54 svn-593M
Encoding settings : cabac=1 / ref=7 / deblock=1:-4:-4 / analyse=0x3:0x133 / me=umh / subme=6 / brdo=1 / mixed_ref=1 / me_range=16 / chroma_me=1 / trellis=1 / 8x8dct=1 / cqm=2 / deadzone=21,11 / chroma_qp_offset=0 / slices=2 / nr=0 / decimate=1 / mbaff=0 / bframes=4 / b_pyramid=1 / b_adapt=1 / b_bias=0 / direct=1 / wpredb=1 / bime=1 / keyint=250 / keyint_min=25 / scenecut=40 / rc=2pass / bitrate=7996 / ratetol=1.0 / rceq='blurCplx^(1-qComp)' / qcomp=0.60 / qpmin=10 / qpmax=51 / qpstep=4 / cplxblur=20.0 / qblur=0.5 / ip_ratio=1.40 / pb_ratio=1.30
Language : English
Audio #2
ID : 2
Format : AC-3
Format/Info : Audio Coding 3
Mode extension : CM (complete main)
Codec ID : A_AC3
Duration : 2h 20mn
Bit rate mode : Constant
Bit rate : 448 Kbps
Channel(s) : 6 channels
Channel positions : Front: L C R, Side: L R, LFE
Sampling rate : 48.0 KHz
Bit depth : 16 bits
Video delay : 4ms
Stream size : 449 MiB (5%)
Title : Dubbed
Language : Russian
Audio #3
ID : 3
Format : AC-3
Format/Info : Audio Coding 3
Mode extension : CM (complete main)
Codec ID : A_AC3
Duration : 2h 20mn
Bit rate mode : Constant
Bit rate : 448 Kbps
Channel(s) : 6 channels
Channel positions : Front: L C R, Side: L R, LFE
Sampling rate : 48.0 KHz
Bit depth : 16 bits
Video delay : 4ms
Stream size : 449 MiB (5%)
Title : Tycoon
Language : Russian
Audio #4
ID : 4
Format : AC-3
Format/Info : Audio Coding 3
Mode extension : CM (complete main)
Codec ID : A_AC3
Duration : 2h 20mn
Bit rate mode : Constant
Bit rate : 448 Kbps
Channel(s) : 6 channels
Channel positions : Front: L C R, Side: L R, LFE
Sampling rate : 48.0 KHz
Bit depth : 16 bits
Video delay : 4ms
Stream size : 449 MiB (5%)
Title : Gavrilov
Language : Russian
Audio #5
ID : 5
Format : AC-3
Format/Info : Audio Coding 3
Mode extension : CM (complete main)
Codec ID : A_AC3
Duration : 2h 20mn
Bit rate mode : Constant
Bit rate : 448 Kbps
Channel(s) : 6 channels
Channel positions : Front: L C R, Side: L R, LFE
Sampling rate : 48.0 KHz
Bit depth : 16 bits
Stream size : 449 MiB (5%)
Language : English
Text #6
ID : 6
Format : UTF-8
Codec ID : S_TEXT/UTF8
Codec ID/Info : UTF-8 Plain Text
Language : Russian

Скриншоты

Скринлист

Звездные войны: Эпизод IV - Новая надежда | Star Wars Special Edition: Episode IV - A New Hope

--
Звездные войны: Эпизод IV - Новая надежда | Star Wars Special Edition: Episode IV - A New Hope
«Coming to your galaxy this summer.»
Год выпуска: 1977
Страна: США
Жанр: Фантастика, Боевик, Фэнтези, Приключения
Продолжительность: 02:04
Перевод: Профессиональный (полное дублирование)
Субтитры: Russian-- В ролях: Марк Хэмилл, Харрисон Форд, Кэрри Фишер, Питер Кашинг, Алек Гиннесс, Энтони Дэниелс, Кенни Бейкер, Питер Мейхью, Дэвид Праус, Джеймс Эрл Джонс
Режиссёр: Джордж Лукас | George Lucas -- Описание:

Татуин. Планета-пустыня. Уже постаревший рыцарь Джедай Оби Ван Кеноби спасает молодого Люка Скайуокера, когда тот пытается отыскать пропавшего дроида. С этого момента Люк осознает свое истинное назначение: он один из рыцарей Джедай. В то время как гражданская война охватила галактику, а войска повстанцев ведут бои против сил злого Императора, к Люку и Оби Вану присоединяется отчаянный пилот-наемник Хан Соло, и в сопровождении двух дроидов, R2D2 и C-3PO, этот необычный отряд отправляется на поиски предводителя повстанцев — принцессы Леи. Героям предстоит отчаянная схватка с устрашающим Дартом Вейдером — правой рукой Императора и его секретным оружием — «Звездой Смерти».
Качество: HDTVRip
Формат: MKV
Видео кодек: H.264
Аудио кодек: AC3
Видео: 1920x816; 23.976; 8,802 Кбит/сек
Аудио: Russian AC3, 48 KHz, Dolby, 6 ch, 448 Kbps (дубляж)
Аудио: Russian AC3, 48 KHz, Dolby, 6 ch, 448 Kbps (Tycoon)
Аудио: Russian AC3, 48 KHz, Dolby, 6 ch, 448 Kbps (Гаврилов)
Аудио: English AC3, 48 KHz, Dolby, 6 ch, 448 Kbps

Рейтинг

Награды

«Грэмми» за музыку в кино, включён в 1989 году в Национальный регистр фильмов.--
Премия канала «MTV», 1997 год
Победитель (1):
››› За достижения на жизненном пути (Питер Мейхью)
--
Британская академия, 1979 год
Победитель (2):
››› Лучший звук
››› Премия имени Энтони Эскуита за достижения в создании музыки к фильму

Номинации (4):
››› Лучший фильм
››› Лучшая работа художника-постановщика
››› Лучшие костюмы
››› Лучший монтаж--
Оскар, 1978 год
Победитель (7):
››› Лучшие декорации
››› Лучшие костюмы
››› Лучший звук
››› Лучший монтаж
››› Лучшие визуальные эффекты
››› Лучший оригинальный саундтрек
››› Награда за особые достижения — «за звуковые эффекты»

Номинации (4):
››› Лучший фильм
››› Лучшая мужская роль второго плана (Алек Гиннесс)
››› Лучший режиссер (Джордж Лукас)
››› Лучший сценарий--
Золотой глобус, 1978 год
Победитель (1):
››› Лучший саундтрек

Номинации (3):
››› Лучший фильм (драма)
››› Лучшая мужская роль второго плана (Алек Гиннесс)
››› Лучший режиссер (Джордж Лукас)

MediaInfo


F:\Скачанное\Кино\Star Wars.Episodes Complete\Star Wars Episode IV A New Hope (1977 1080p Rus Eng).mkv
General
Complete name : F:\Скачанное\Кино\Star Wars.Episodes Complete\Star Wars Episode IV A New Hope (1977 1080p Rus Eng).mkv
Format : Matroska
File size : 9.13 GiB
Duration : 2h 4mn
Overall bit rate : 10.5 Mbps
Encoded date : UTC 2009-06-04 21:50:07
Writing application : mkvmerge v1.7.0 ('What Do You Take Me For') built on Apr 28 2006 17:20:19
Writing library : libebml v0.7.7 + libmatroska v0.8.0
Video #1
ID : 1
Format : AVC
Format/Info : Advanced Video Codec
Format profile : [url=mailto:High@L5.1]High@L5.1[/url]
Format settings, CABAC : Yes
Format settings, ReFrames : 8 frames
Muxing mode : Container profile=Unknown@5.1
Codec ID : V_MPEG4/ISO/AVC
Duration : 2h 4mn
Bit rate : 8 479 Kbps
Nominal bit rate : 9 128 Kbps
Width : 1 920 pixels
Height : 816 pixels
Display aspect ratio : 2.35:1
Frame rate : 23.976 fps
Original frame rate : 25.000 fps
Color space : YUV
Chroma subsampling : 4:2:0
Bit depth : 8 bits
Scan type : Progressive
Bits/(Pixel*Frame) : 0.226
Stream size : 7.39 GiB (81%)
Writing library : x264 core 56 svn-667C
Encoding settings : cabac=1 / ref=5 / deblock=1:-3:-3 / analyse=0x3:0x133 / me=umh / subme=7 / brdo=1 / mixed_ref=1 / me_range=16 / chroma_me=1 / trellis=1 / 8x8dct=1 / cqm=2 / deadzone=21,11 / chroma_qp_offset=0 / threads=1 / nr=0 / decimate=1 / mbaff=0 / bframes=3 / b_pyramid=1 / b_adapt=1 / b_bias=0 / direct=3 / wpredb=1 / bime=1 / keyint=250 / keyint_min=25 / scenecut=40 / rc=2pass / bitrate=9128 / ratetol=1.0 / rceq='blurCplx^(1-qComp)' / qcomp=0.60 / qpmin=10 / qpmax=51 / qpstep=4 / cplxblur=20.0 / qblur=0.5 / ip_ratio=1.40 / pb_ratio=1.30 / aq=1:0.3:15.0
Language : English
Audio #2
ID : 2
Format : AC-3
Format/Info : Audio Coding 3
Mode extension : CM (complete main)
Codec ID : A_AC3
Duration : 2h 4mn
Bit rate mode : Constant
Bit rate : 448 Kbps
Channel(s) : 6 channels
Channel positions : Front: L C R, Side: L R, LFE
Sampling rate : 48.0 KHz
Bit depth : 16 bits
Stream size : 400 MiB (4%)
Title : Dubbed
Language : Russian
Audio #3
ID : 3
Format : AC-3
Format/Info : Audio Coding 3
Mode extension : CM (complete main)
Codec ID : A_AC3
Duration : 2h 4mn
Bit rate mode : Constant
Bit rate : 448 Kbps
Channel(s) : 6 channels
Channel positions : Front: L C R, Side: L R, LFE
Sampling rate : 48.0 KHz
Bit depth : 16 bits
Stream size : 400 MiB (4%)
Title : Tycoon
Language : Russian
Audio #4
ID : 4
Format : AC-3
Format/Info : Audio Coding 3
Mode extension : CM (complete main)
Codec ID : A_AC3
Duration : 2h 4mn
Bit rate mode : Constant
Bit rate : 448 Kbps
Channel(s) : 6 channels
Channel positions : Front: L C R, Side: L R, LFE
Sampling rate : 48.0 KHz
Bit depth : 16 bits
Stream size : 400 MiB (4%)
Title : Gavrilov
Language : Russian
Audio #5
ID : 5
Format : AC-3
Format/Info : Audio Coding 3
Mode extension : CM (complete main)
Codec ID : A_AC3
Duration : 2h 4mn
Bit rate mode : Constant
Bit rate : 448 Kbps
Channel(s) : 6 channels
Channel positions : Front: L C R, Side: L R, LFE
Sampling rate : 48.0 KHz
Bit depth : 16 bits
Stream size : 400 MiB (4%)
Language : English
Text #6
ID : 6
Format : UTF-8
Codec ID : S_TEXT/UTF8
Codec ID/Info : UTF-8 Plain Text
Language : Russian

Скриншоты

Скринлист

Звездные войны: Эпизод V - Империя наносит ответный удар | Star Wars Special Edition: Episode V - The Empire Strikes Back

--
Звездные войны: Эпизод V - Империя наносит ответный удар | Star Wars Special Edition: Episode V - The Empire Strikes Back
«The battle continues...»
Год выпуска: 1980
Страна: США
Жанр: Фантастика, Боевик, Фэнтези, Приключения
Продолжительность: 02:16
Перевод: Профессиональный (полное дублирование)
Субтитры: Russian-- В ролях: Марк Хэмилл, Харрисон Форд, Кэрри Фишер, Билли Ди Уильямс, Энтони Дэниелс, Дэвид Праус, Питер Мейхью, Кенни Бейкер, Фрэнк Оз, Алек Гиннесс
Режиссёр: Джордж Лукас | George Lucas -- Описание:

Борьба за Галактику обостряется в пятом эпизоде космической саги. Войска Императора начинают массированную атаку на повстанцев и их союзников. Хан Соло и принцесса Лейя укрываются в Заоблачном Городе, в котором их и захватывает Дарт Вейдер, в то время как Люк Скайуокер находится на таинственной планете джунглей Дагобар. Там Мастер — джедай Йода обучает молодого рыцаря навыкам обретения Силы. Люк даже не предполагает, как скоро ему придется воспользоваться знаниями старого Мастера: впереди битва с превосходящими силами Императора и смертельный поединок с Дартом Вейдером.
Качество: HDTVRip
Формат: MKV
Видео кодек: H.264
Аудио кодек: AC3
Видео: 1920x816; 23.976; 8,505 Кбит/с
Аудио: Russian AC3, 48 KHz, Dolby, 6 ch, 448 Kbps (дубляж)
Аудио: Russian AC3, 48 KHz, Dolby, 6 ch, 448 Kbps (Tycoon)
Аудио: Russian AC3, 48 KHz, Dolby, 6 ch, 448 Kbps (Гаврилов)
Аудио: English AC3, 48 KHz, Dolby, 6 ch, 448 Kbps

Рейтинг

Награды

››› Специальный «Оскар» за визуальные эффекты (Брайан Джонсон, Ричард Эдлунд, Деннис Мёрен, Брюс Николсон — Brian Johnson, Richard Edlund, Dennis Muren, Bruce Nicholson), «Грэмми» за музыку.--
Оскар, 1981 год
Победитель (2):
››› Лучший звук
››› Награда за особые достижения — «за визуальные эффекты»

Номинации (2):
››› Лучшие декорации
››› Лучший оригинальный саундтрек--
Золотой глобус, 1981 год
Номинации (1):
››› Лучший саундтрек--
Британская академия, 1981 год
Победитель (1):
››› Премия имени Энтони Эскуита за достижения в создании музыки к фильму

Номинации (2):
››› Лучшая работа художника-постановщика
››› Лучший звук

MediaInfo


F:\Скачанное\Кино\Star Wars.Episodes Complete\Star Wars Episode V The Empire Strikes Back (1980 1080p Rus Eng).mkv
General
Complete name : F:\Скачанное\Кино\Star Wars.Episodes Complete\Star Wars Episode V The Empire Strikes Back (1980 1080p Rus Eng).mkv
Format : Matroska
File size : 9.16 GiB
Duration : 2h 7mn
Overall bit rate : 10.3 Mbps
Encoded date : UTC 2009-06-04 21:16:05
Writing application : mkvmerge v1.7.0 ('What Do You Take Me For') built on Apr 28 2006 17:20:19
Writing library : libebml v0.7.7 + libmatroska v0.8.0
Video #1
ID : 1
Format : AVC
Format/Info : Advanced Video Codec
Format profile : [url=mailto:High@L5.1]High@L5.1[/url]
Format settings, CABAC : Yes
Format settings, ReFrames : 8 frames
Muxing mode : Container profile=Unknown@5.1
Codec ID : V_MPEG4/ISO/AVC
Duration : 2h 7mn
Bit rate : 8 305 Kbps
Nominal bit rate : 8 868 Kbps
Width : 1 920 pixels
Height : 816 pixels
Display aspect ratio : 2.35:1
Frame rate : 23.976 fps
Original frame rate : 25.000 fps
Color space : YUV
Chroma subsampling : 4:2:0
Bit depth : 8 bits
Scan type : Progressive
Bits/(Pixel*Frame) : 0.221
Stream size : 7.39 GiB (81%)
Title : Star Wars Episode V - The Empire Strikes Back
Writing library : x264 core 56 svn-667C
Encoding settings : cabac=1 / ref=5 / deblock=1:-3:-3 / analyse=0x3:0x133 / me=umh / subme=7 / brdo=1 / mixed_ref=1 / me_range=16 / chroma_me=1 / trellis=1 / 8x8dct=1 / cqm=2 / deadzone=21,11 / chroma_qp_offset=0 / threads=1 / nr=0 / decimate=1 / mbaff=0 / bframes=3 / b_pyramid=1 / b_adapt=1 / b_bias=0 / direct=3 / wpredb=1 / bime=1 / keyint=250 / keyint_min=25 / scenecut=40 / rc=2pass / bitrate=8868 / ratetol=1.0 / rceq='blurCplx^(1-qComp)' / qcomp=0.60 / qpmin=10 / qpmax=51 / qpstep=4 / cplxblur=20.0 / qblur=0.5 / ip_ratio=1.40 / pb_ratio=1.30 / aq=1:0.3:15.0
Language : English
Audio #2
ID : 2
Format : AC-3
Format/Info : Audio Coding 3
Mode extension : CM (complete main)
Codec ID : A_AC3
Duration : 2h 7mn
Bit rate mode : Constant
Bit rate : 448 Kbps
Channel(s) : 6 channels
Channel positions : Front: L C R, Side: L R, LFE
Sampling rate : 48.0 KHz
Bit depth : 16 bits
Stream size : 408 MiB (4%)
Title : Dubbed
Language : Russian
Audio #3
ID : 3
Format : AC-3
Format/Info : Audio Coding 3
Mode extension : CM (complete main)
Codec ID : A_AC3
Duration : 2h 7mn
Bit rate mode : Constant
Bit rate : 448 Kbps
Channel(s) : 6 channels
Channel positions : Front: L C R, Side: L R, LFE
Sampling rate : 48.0 KHz
Bit depth : 16 bits
Stream size : 408 MiB (4%)
Title : Tycoon
Language : Russian
Audio #4
ID : 4
Format : AC-3
Format/Info : Audio Coding 3
Mode extension : CM (complete main)
Codec ID : A_AC3
Duration : 2h 7mn
Bit rate mode : Constant
Bit rate : 448 Kbps
Channel(s) : 6 channels
Channel positions : Front: L C R, Side: L R, LFE
Sampling rate : 48.0 KHz
Bit depth : 16 bits
Stream size : 408 MiB (4%)
Title : Gavrilov
Language : Russian
Audio #5
ID : 5
Format : AC-3
Format/Info : Audio Coding 3
Mode extension : CM (complete main)
Codec ID : A_AC3
Duration : 2h 7mn
Bit rate mode : Constant
Bit rate : 448 Kbps
Channel(s) : 6 channels
Channel positions : Front: L C R, Side: L R, LFE
Sampling rate : 48.0 KHz
Bit depth : 16 bits
Stream size : 408 MiB (4%)
Title : Dolby Digital
Language : English
Text #6
ID : 6
Format : UTF-8
Codec ID : S_TEXT/UTF8
Codec ID/Info : UTF-8 Plain Text
Language : Russian
Text #7
ID : 7
Format : SSA
Codec ID : S_TEXT/SSA
Codec ID/Info : Sub Station Alpha
Language : English

Скриншоты

Скринлист

Звездные войны: Эпизод VI - Возвращение Джедая | Star Wars Special Edition: Episode VI - Return of the Jedi

--Звездные войны: Эпизод VI - Возвращение Джедая | Star Wars Special Edition: Episode VI - Return of the Jedi
«The Saga Continues.»
Год выпуска: 1983
Страна: США
Жанр: Фантастика, Боевик, Фэнтези, Приключения
Продолжительность: 02:14
Перевод: Профессиональный (полное дублирование)
Субтитры: Russian-- В ролях: Марк Хэмилл, Харрисон Форд, Кэрри Фишер, Билли Ди Уильямс, Энтони Дэниелс, Питер Мейхью, Себастьян Шоу, Иэн МакДайармид, Фрэнк Оз, Джеймс Эрл Джонс
Режиссёр: Джордж Лукас | George Lucas -- Описание:

В заключительном шестом эпизоде «Звездных войн» Дарт Вейдер создает вторую «Звезду Смерти». Он объединяет все силы зла, чтобы с помощью этого смертоносного оружия нанести последний сокрушительный удар по повстанцам и их союзникам.
Люк Скайуокер вместе с принцессой Лейей и верными дроидами R2D2 и C-3PO отправляется спасать своего друга Хана Соло, который пропал в плен к отвратительному Джаббе Хатту — могущественному повелителю преступников.
Повстанцы высаживаются на планету Эндор, чтобы оттуда вместе с Люком и его отрядом предпринять последнюю атаку на Имперский флот, атаку, от которой зависит судьба Галактики. В этом эпизоде Люк Скайуокер и Дарт Вейдер встречаются в последний раз… ибо из поединка между отцом и сыном живым выйдет только один…
Качество: HDTVRip
Формат: MKV
Видео кодек: H.264
Аудио кодек: AC3
Видео: 1920x816; 23.976; 8,802 Кбит/сек
Аудио: Russian AC3, 48 KHz, Dolby, 6 ch, 448 Kbps (дубляж)
Аудио: Russian AC3, 48 KHz, Dolby, 6 ch, 448 Kbps (Tycoon)
Аудио: Russian AC3, 48 KHz, Dolby, 6 ch, 448 Kbps (Гаврилов)
Аудио: English AC3, 48 KHz, Dolby, 6 ch, 448 Kbps

Рейтинг

Награды

--
Оскар, 1984 год
Победитель (1):
››› Награда за особые достижения — «за монтаж звуковых эффектов»

Номинации (4):
››› Лучшие декорации
››› Лучший звук
››› Лучший монтаж звука
››› Лучший оригинальный саундтрек--
Британская академия, 1984 год
Победитель (1):
››› Лучшие визуальные эффекты

Номинации (3):
››› Лучшая работа художника-постановщика
››› Лучший звук
››› Лучший грим

MediaInfo


F:\Скачанное\Кино\Star Wars.Episodes Complete\Star Wars Episode VI Return Of The Jedi (1983 1080p Rus Eng).mkv
General
Complete name : F:\Скачанное\Кино\Star Wars.Episodes Complete\Star Wars Episode VI Return Of The Jedi (1983 1080p Rus Eng).mkv
Format : Matroska
File size : 9.23 GiB
Duration : 2h 14mn
Overall bit rate : 9 806 Kbps
Encoded date : UTC 2009-06-04 20:37:16
Writing application : mkvmerge v1.7.0 ('What Do You Take Me For') built on Apr 28 2006 17:20:19
Writing library : libebml v0.7.7 + libmatroska v0.8.0
Video #1
ID : 1
Format : AVC
Format/Info : Advanced Video Codec
Format profile : [url=mailto:High@L5.1]High@L5.1[/url]
Format settings, CABAC : Yes
Format settings, ReFrames : 8 frames
Muxing mode : Container profile=Unknown@5.1
Codec ID : V_MPEG4/ISO/AVC
Duration : 2h 14mn
Bit rate : 7 819 Kbps
Nominal bit rate : 8 352 Kbps
Width : 1 920 pixels
Height : 816 pixels
Display aspect ratio : 2.35:1
Frame rate : 23.976 fps
Original frame rate : 25.000 fps
Color space : YUV
Chroma subsampling : 4:2:0
Bit depth : 8 bits
Scan type : Progressive
Bits/(Pixel*Frame) : 0.208
Stream size : 7.36 GiB (80%)
Title : Star Wars VI - Return Of The Jedi
Writing library : x264 core 56 svn-676 patch:aq build:jcrh
Encoding settings : cabac=1 / ref=5 / deblock=1:-3:-3 / analyse=0x3:0x133 / me=umh / subme=7 / brdo=1 / mixed_ref=1 / me_range=16 / chroma_me=1 / trellis=1 / 8x8dct=1 / cqm=2 / deadzone=21,11 / chroma_qp_offset=0 / threads=12 / nr=0 / decimate=1 / mbaff=0 / bframes=3 / b_pyramid=1 / b_adapt=1 / b_bias=0 / direct=3 / wpredb=1 / bime=1 / keyint=250 / keyint_min=25 / scenecut=40(pre) / rc=2pass / bitrate=8352 / ratetol=1.0 / rceq='blurCplx^(1-qComp)' / qcomp=0.60 / qpmin=10 / qpmax=51 / qpstep=4 / cplxblur=20.0 / qblur=0.5 / ip_ratio=1.40 / pb_ratio=1.30 / aq=1:0.3:15.0
Language : English
Audio #2
ID : 2
Format : AC-3
Format/Info : Audio Coding 3
Mode extension : CM (complete main)
Codec ID : A_AC3
Duration : 2h 14mn
Bit rate mode : Constant
Bit rate : 448 Kbps
Channel(s) : 6 channels
Channel positions : Front: L C R, Side: L R, LFE
Sampling rate : 48.0 KHz
Bit depth : 16 bits
Stream size : 432 MiB (5%)
Title : Dubbed
Language : Russian
Audio #3
ID : 3
Format : AC-3
Format/Info : Audio Coding 3
Mode extension : CM (complete main)
Codec ID : A_AC3
Duration : 2h 14mn
Bit rate mode : Constant
Bit rate : 448 Kbps
Channel(s) : 6 channels
Channel positions : Front: L C R, Side: L R, LFE
Sampling rate : 48.0 KHz
Bit depth : 16 bits
Stream size : 432 MiB (5%)
Title : Tycoon
Language : Russian
Audio #4
ID : 4
Format : AC-3
Format/Info : Audio Coding 3
Mode extension : CM (complete main)
Codec ID : A_AC3
Duration : 2h 14mn
Bit rate mode : Constant
Bit rate : 448 Kbps
Channel(s) : 6 channels
Channel positions : Front: L C R, Side: L R, LFE
Sampling rate : 48.0 KHz
Bit depth : 16 bits
Stream size : 432 MiB (5%)
Title : Gavrilov
Language : Russian
Audio #5
ID : 5
Format : AC-3
Format/Info : Audio Coding 3
Mode extension : CM (complete main)
Codec ID : A_AC3
Duration : 2h 14mn
Bit rate mode : Constant
Bit rate : 448 Kbps
Channel(s) : 6 channels
Channel positions : Front: L C R, Side: L R, LFE
Sampling rate : 48.0 KHz
Bit depth : 16 bits
Stream size : 432 MiB (5%)
Title : Dolby Digital
Language : English
Text #6
ID : 6
Format : UTF-8
Codec ID : S_TEXT/UTF8
Codec ID/Info : UTF-8 Plain Text
Language : Russian
Text #7
ID : 7
Format : SSA
Codec ID : S_TEXT/SSA
Codec ID/Info : Sub Station Alpha
Title : English Subtitles
Language : English

Скриншоты

Скринлист

---Оформление by a.k.a. Rasputin

_________________
Показать сообщения:    

Текущее время: Сегодня 04:04

Часовой пояс: GMT



Вы не можете начинать темы
Вы не можете отвечать на сообщения
Вы не можете редактировать свои сообщения
Вы не можете удалять свои сообщения
Вы не можете голосовать в опросах
Вы не можете прикреплять файлы к сообщениям
Вы не можете скачивать файлы
Наши партнеры: интернет магазин Ивановского трикотажа textilla.ru