Важное объявление!
У Нас Все раздачи мультитрекерные, при нуле пиров в релизах, можете смело вставать на закачку!
 
Автор Сообщение

димитри37

Стаж:
3 года 8 месяцев
Сообщений:
1237

Репутация: 127

[+] [-]
Вне форума [Профиль] [ЛС]

Звезда пленительного счастья (2 серии)
Жанр: драма
Год выпуска: 1975
Продолжительность: 02:38:32 (01:21:05 + 01:17:27)
Режиссер: Владимир Мотыль
В ролях: Ирина Купченко, Алексей Баталов, Наталья Бондарчук, Олег Стриженов, Эва Шикульска, Игорь Костолевский, Олег Янковский, Александр Пороховщиков, Михаил Боярский, Василий Ливанов, Иннокентий Смоктуновский, Владислав Стржельчик, Игорь Дмитриев, Михаил Кокшенов, Олег Даль, Борислав Брондуков, Леонид Неведомский, Татьяна Окуневская
Описание: В ноябре 1825 года неожиданно, вдали от Петербурга, в Таганроге, умирает император Александр I. Сына у него не было, и наследником престола являлся его брат Константин. Но, женатый на простой дворянке, особе не царской крови, Константин по правилам престолонаследия не смог бы передать корону своим потомкам и поэтому отрёкся от престола. Императором должен был стать следующий брат, Николай. Отречение Константина держали в тайне - о нём знал лишь самый узкий круг членов царской семьи. 27 ноября население было приведено к присяге Константину. Формально в России появился новый император - Константин I. Но Константин престола не принимал и одновременно не желал и публично отрекаться от него. Создалось двусмысленное и крайне напряжённое положение междуцарствия. Николай, ожидая выступления тайного общества, о котором уже был осведомлён шпионами-доносчиками, решился, наконец, объявить себя императором, так и не дождавшись от брата формального акта отречения. Была назначена вторая присяга, или, как говорили в войсках, "переприсяга", - на этот раз уже Николаю I. Переприсяга в Петербурге должна была состояться 14 декабря 1825 года...
Доп. информация: Посвящается женщинам России.
Сценарий: Владимир Мотыль, Олег Осетинский, Марк Захаров
Оператор: Дмитрий Месхиев
Художник: Валерий Кострин
Композитор: Исаак Шварц
Стихи: Булат Окуджава
Вокал: Владимир Качан (романс "Кавалергарды, век недолог..."), Е.Муханова (романс "На качелях" на итальянском языке)
Награды: почетный диплом "Лучшие фильмы мира" на МКФ в Белграде (1977)
Ограничения на просмотр: для любой зрительской аудитории

Качество видео: DVDRip
Формат видео: AVI
Видео:
1 серия - 704x528 (1.33:1), 25 fps, XviD 1.2.1, 1995 kbps avg, 0.21 bit/pixel
2 серия - 704x528 (1.33:1), 25 fps, XviD 1.2.1, 1995 kbps avg, 0.21 bit/pixel
Аудио: 48 kHz, AC3 Dolby Digital, 3/2 (L,C,R,l,r) + LFE ch, 448.00 kbps avg

MediaInfo

Полное имя : Zvezda\Part 1.avi
Формат : AVI
Формат/Информация : Audio Video Interleave
Размер файла : 1,39 Гбайт
Продолжительность : 1 ч. 21 м.
Общий поток : 2453 Кбит/сек
Программа кодирования : VirtualDubMod 1.5.10.3 (build 2550/release)
Библиотека кодирования : VirtualDubMod build 2550/release
Видео
Идентификатор : 0
Формат : MPEG-4 Visual
Профиль формата : Advanced Simple@L5
Параметр BVOP формата : 2
Параметр QPel формата : Нет
Параметр GMC формата : Без точки перехода
Параметр матрицы формата : Default (MPEG)
Режим смешивания : Сжатый битовый поток
Идентификатор кодека : DIVX
Идентификатор кодека/Информация : Project Mayo
Идентификатор кодека/Подсказка : DivX 4
Продолжительность : 1 ч. 21 м.
Битрейт : 1995 Кбит/сек
Ширина : 704 пикселя
Высота : 528 пикселей
Соотношение сторон : 4:3
Частота кадров : 25,000 кадров/сек
Цветовое пространство : YUV
Субдискретизация насыщенности : 4:2:0
Битовая глубина : 8 бит
Тип развёртки : Прогрессивная
Метод сжатия : С потерями
Бит/(Пиксели*Кадры) : 0.215
Размер потока : 1,13 Гбайт (81%)
Библиотека кодирования : XviD 1.2.1 (UTC 2008-12-04)
Аудио
Идентификатор : 1
Формат : AC-3
Формат/Информация : Audio Coding 3
Расширение режима : CM (complete main)
Идентификатор кодека : 2000
Продолжительность : 1 ч. 21 м.
Вид битрейта : Постоянный
Битрейт : 448 Кбит/сек
Каналы : 6 каналов
Расположение каналов : Front: L C R, Side: L R, LFE
Частота : 48,0 КГц
Битовая глубина : 16 бит
Метод сжатия : С потерями
Задержка видео : 1 с. 779 мс.
Размер потока : 260 Мбайт (18%)
Выравнивание : Разделение по промежуткам
Продолжительность промежутка : 40 мс. (1,00 видеокадр)
Время предзагрузки промежутка : 500 мс.
Полное имя : Zvezda\Part 2.avi
Формат : AVI
Формат/Информация : Audio Video Interleave
Размер файла : 1,33 Гбайт
Продолжительность : 1 ч. 17 м.
Общий поток : 2452 Кбит/сек
Программа кодирования : VirtualDubMod 1.5.10.3 (build 2550/release)
Библиотека кодирования : VirtualDubMod build 2550/release
Видео
Идентификатор : 0
Формат : MPEG-4 Visual
Профиль формата : Advanced Simple@L5
Параметр BVOP формата : 2
Параметр QPel формата : Нет
Параметр GMC формата : Без точки перехода
Параметр матрицы формата : Default (MPEG)
Режим смешивания : Сжатый битовый поток
Идентификатор кодека : DIVX
Идентификатор кодека/Информация : Project Mayo
Идентификатор кодека/Подсказка : DivX 4
Продолжительность : 1 ч. 17 м.
Битрейт : 1995 Кбит/сек
Ширина : 704 пикселя
Высота : 528 пикселей
Соотношение сторон : 4:3
Частота кадров : 25,000 кадров/сек
Цветовое пространство : YUV
Субдискретизация насыщенности : 4:2:0
Битовая глубина : 8 бит
Тип развёртки : Прогрессивная
Метод сжатия : С потерями
Бит/(Пиксели*Кадры) : 0.215
Размер потока : 1,08 Гбайт (81%)
Библиотека кодирования : XviD 1.2.1 (UTC 2008-12-04)
Аудио
Идентификатор : 1
Формат : AC-3
Формат/Информация : Audio Coding 3
Расширение режима : CM (complete main)
Идентификатор кодека : 2000
Продолжительность : 1 ч. 17 м.
Вид битрейта : Постоянный
Битрейт : 448 Кбит/сек
Каналы : 6 каналов
Расположение каналов : Front: L C R, Side: L R, LFE
Частота : 48,0 КГц
Битовая глубина : 16 бит
Метод сжатия : С потерями
Задержка видео : 20 мс.
Размер потока : 248 Мбайт (18%)
Выравнивание : Разделение по промежуткам
Продолжительность промежутка : 40 мс. (1,00 видеокадр)
Время предзагрузки промежутка : 500 мс.

Скриншоты названия

Сравнение

http://rutracker.org/forum/viewtopic.php?t=2669575 - с конкурентом
http://screenshotcomparison.com/comparison/111597
В данной раздаче слегка нарушен AR, и файл не разделён на серии.
Показать сообщения:    

Текущее время: Сегодня 11:57

Часовой пояс: GMT



Вы не можете начинать темы
Вы не можете отвечать на сообщения
Вы не можете редактировать свои сообщения
Вы не можете удалять свои сообщения
Вы не можете голосовать в опросах
Вы не можете прикреплять файлы к сообщениям
Вы не можете скачивать файлы