Важное объявление!
У Нас Все раздачи мультитрекерные, при нуле пиров в релизах, можете смело вставать на закачку!
 
Автор Сообщение

HUNTER

Стаж:
4 года 4 месяца
Сообщений:
56848

Репутация: 101

[+] [-]
Вне форума [Профиль] [ЛС]

Зачарованные вязы / Заколдованный лес / Чудесный лес / Cudesna suma / The Elm-Chanted Forest
«Listen Carefully To The Wind And You Will Hear Its Whispers»
Страна: Югославия, США
Жанр: мультфильм
Продолжительность: 01:18:11
Год выпуска: 1986
Перевод: Авторский (одноголосый закадровый) Сергей Визгунов
(перевел как - Зачарованные вязы)
Русские субтитры: нет
Режиссёр: Милан Блазекович / Milan Blazekovic, Доро Владо Хрельянович / Doro Vlado Hreljanovic
Роли озвучивали: Иосип Маротти, Вили Матула, Любо Капор, Эмиль Глад, Иво Рогулья, Хелена Балджан, Джурджа Ивезич, Свен Ласта, Владимир Ковачич, Адам Ведерняк
Описание: Заснув под Заколдованным Вязом, художник Питер Палитра обнаруживает при пробуждении, что кисточка его стала волшебной, а сам он теперь понимает язык животных. С этого момента начинаются приключения Питера в Чудесном Лесу, где он сразу становится знаменитостью и находит новых друзей: деловитого бобра, бывшего чемпиона медведя, очаровательную лису, веселых ежат и многих других зверей и птиц. А тем временем злой царь Кактус вовсю строит планы по уничтожению Леса. Узнав о появлении человека, предсказанном в старом Пророчестве, тиран приказывает своему помощнику чародею Палочке избавиться от художника. Питеру и его друзьям предстоит спасти Лес от разрушения, столкнуться с Алебардами — зловещими слугами царя Кактуса, и разгадать главный его секрет.
Доп. информация: Дорожка с С. Визгуновым синхронизирована и наложена ale_x2008 при помощи Adobe Audition, Sony Vegas и VirtualDubMod.
За оцифрованную с VHS дорожку благодарим - alenavova

Релиз
Семпл: https://yadi.sk/i/5wLvuVL7vfucQ
Качество: DVDRip
Формат: AVI
Видео: XviD build 73, 704x544 (1.29:1), 25.00 fps, 2105 kbps avg, 0.22 bit/pixel
Аудио: AC3 Dolby Digital, 48000Hz, 2/0 (mono) ch, 192.00 kbps avg [AVO]
Аудио 2: AC3 Dolby Digital, 48000Hz, 2/0 (mono) ch, 192.00 kbps avg [Eng]
Субтитры: отсутствуют

Подробные технические данные

Зачарованные вязы - Cudesna suma [by ale_x2008].aviFormat : AVIFormat/Info : Audio Video InterleaveFile size : 1.37 GiBDuration : 1 h 18 minOverall bit rate : 2 505 kb/sMovie name : Зачарованные вязы - Cudesna suma [by ale_x2008]Director : by ale_x2008Writing application : VirtualDubMod 1.5.10.3 (build 2550/release)Copyright : Edich2Comment : RuTracker.org
VideoID : 0Format : MPEG-4 VisualFormat profile : Advanced Simple@L5Format settings, BVOP : 2Format settings, QPel : NoFormat settings, GMC : No warppointsFormat settings, Matrix : CustomCodec ID : XVIDCodec ID/Hint : XviDDuration : 1 h 18 minBit rate : 2 107 kb/sWidth : 704 pixelsHeight : 544 pixelsDisplay aspect ratio : 1.294Frame rate : 25.000 FPSColor space : YUVChroma subsampling : 4:2:0Bit depth : 8 bitsScan type : ProgressiveCompression mode : LossyBits/(Pixel*Frame) : 0.220Stream size : 1.15 GiB (84%)Writing library : XviD 73
Audio #1ID : 1Format : AC-3Format/Info : Audio Coding 3Mode extension : CM (complete main)Format settings, Endianness : BigCodec ID : 2000Duration : 1 h 18 minBit rate mode : ConstantBit rate : 192 kb/sChannel(s) : 2 channelsChannel positions : Front: L RSampling rate : 48.0 kHzFrame rate : 31.250 FPS (1536 spf)Compression mode : LossyStream size : 107 MiB (8%)Alignment : Split accross interleavesInterleave, duration : 40 ms (1.00 video frame)Interleave, preload duratio : 500 ms
Audio #2ID : 2Format : AC-3Format/Info : Audio Coding 3Mode extension : CM (complete main)Format settings, Endianness : BigCodec ID : 2000Duration : 1 h 18 minBit rate mode : ConstantBit rate : 192 kb/sChannel(s) : 2 channelsChannel positions : Front: L RSampling rate : 48.0 kHzFrame rate : 31.250 FPS (1536 spf)Compression mode : LossyStream size : 107 MiB (8%)Alignment : Split accross interleavesInterleave, duration : 40 ms (1.00 video frame)Interleave, preload duratio : 500 ms

Скриншоты



_________________
Показать сообщения:    

Текущее время: Сегодня 04:40

Часовой пояс: GMT



Вы не можете начинать темы
Вы не можете отвечать на сообщения
Вы не можете редактировать свои сообщения
Вы не можете удалять свои сообщения
Вы не можете голосовать в опросах
Вы не можете прикреплять файлы к сообщениям
Вы не можете скачивать файлы
Наши партнеры: интернет магазин Ивановского трикотажа textilla.ru