Важное объявление!
У Нас Все раздачи мультитрекерные, при нуле пиров в релизах, можете смело вставать на закачку!
 
Автор Сообщение

HUNTER

Стаж:
4 года 4 месяца
Сообщений:
56765

Репутация: 101

[+] [-]
Вне форума [Профиль] [ЛС]

Захват яхты / Частное дело / Корсар / Акт пиратства / Act of Piracy / Barraccuda
Страна: США, ЮАР
Студия: Laurelwood Productions/Mayor Arts Corporation Productions/Toron Screen Corporation
Жанр: боевик
Год выпуска: 1988
Продолжительность: 01:40:24
Перевод: Авторский (одноголосый закадровый) Пронин
Cубтитры: нет
Оригинальная аудиодорожка: английский
Режиссер: Джон "Бад" Кардос / John "Bud" Cardos
В ролях: Гари Бьюзи, Белинда Бауэр, Нэнси Малфорд, Кен Гампу, Арнольд Восло, Джон Бад Кардос
Описание: Молодой человек Тед Эндрюс разводится со своей женой. На прощание он просит ее отдать ему двух их детей, чтобы они совершили путешествие в Австралию на шикарной яхте, которую Тед собирается там продать. Женщина соглашается, и вскоре Тед, двое его детей и несколько друзей и знакомых нашего героя отправляются в морское путешествие. Но в первую же ночь на яхту нападают бандиты, приплывшие на скоростном катере, и убивают всех пассажиров. Теду удается избежать смерти, но он оказывается в океане на обломках взорвавшегося катера бандитов. Оказавшись на суше, наш герой связывается с полицией, которая начинает поиски яхты, на которой остались дети Теда…
Неплохой боевик, но не более.
Доп. информация: Диск из собственной колекции.
Сэмпл: http://sendfile.su/1128833
Тип релиза: DVD5 (Custom)
Контейнер: DVD-Video
Видео: PAL 4:3 (720x576) VBR
Аудио: Russian (Dolby AC3, 192 Kbps, 2 ch)
Аудио 2: English (Dolby AC3, 192 Kbps, 2 ch)

DVDInfo

Size: 4.04 Gb ( 4 235 544 KBytes ) - DVD-5
Enabled regions: 1, 2, 3, 4, 5, 6, 7, 8
VTS_01 :
Play Length: 00:00:20
Video: PAL 4:3 (720x576) VBR
VTS_02 :
Play Length: 01:40:24
Video: PAL 4:3 (720x576) VBR
Audio:
Russian (Dolby AC3, 2 ch)
English (Dolby AC3, 2 ch)
Menu Video:
PAL 4:3 (720x576) VBR
Menu Subtitles:
Not specified
Menu English Language Unit :
Root Menu
Chapter (PTT) Menu

MediaInfo

General
Complete name : F:\Act Of Piracy_1988\VIDEO_TS\VTS_02_1.VOB
Format : MPEG-PS
File size : 1 024 MiB
Duration : 25mn 21s
Overall bit rate mode : Variable
Overall bit rate : 5 646 Kbps
Video
ID : 224 (0xE0)
Format : MPEG Video
Format version : Version 2
Format profile : Main@Main
Format settings, BVOP : Yes
Format settings, Matrix : Default
Format settings, GOP : M=2, N=5
Duration : 25mn 21s
Bit rate mode : Variable
Bit rate : 5 150 Kbps
Maximum bit rate : 7 200 Kbps
Width : 720 pixels
Height : 576 pixels
Display aspect ratio : 4:3
Frame rate : 25.000 fps
Standard : PAL
Color space : YUV
Chroma subsampling : 4:2:0
Bit depth : 8 bits
Scan type : Interlaced
Scan order : Top Field First
Compression mode : Lossy
Bits/(Pixel*Frame) : 0.497
Stream size : 934 MiB (91%)
Color primaries : BT.601 PAL
Transfer characteristics : BT.470 System B, BT.470 System G
Matrix coefficients : BT.601
Audio #1
ID : 189 (0xBD)-128 (0x80)
Format : AC-3
Format/Info : Audio Coding 3
Mode extension : CM (complete main)
Format settings, Endianness : Big
Muxing mode : DVD-Video
Duration : 25mn 21s
Bit rate mode : Constant
Bit rate : 192 Kbps
Channel(s) : 2 channels
Channel positions : Front: L R
Sampling rate : 48.0 KHz
Bit depth : 16 bits
Compression mode : Lossy
Stream size : 34.8 MiB (3%)
Audio #2
ID : 189 (0xBD)-129 (0x81)
Format : AC-3
Format/Info : Audio Coding 3
Mode extension : CM (complete main)
Format settings, Endianness : Big
Muxing mode : DVD-Video
Duration : 25mn 21s
Bit rate mode : Constant
Bit rate : 192 Kbps
Channel(s) : 2 channels
Channel positions : Front: L R
Sampling rate : 48.0 KHz
Bit depth : 16 bits
Compression mode : Lossy
Stream size : 34.8 MiB (3%)
Menu

Постеры, обложка и блин

Скриншоты меню

Скриншоты


_________________
Показать сообщения:    

Текущее время: Сегодня 02:25

Часовой пояс: GMT



Вы не можете начинать темы
Вы не можете отвечать на сообщения
Вы не можете редактировать свои сообщения
Вы не можете удалять свои сообщения
Вы не можете голосовать в опросах
Вы не можете прикреплять файлы к сообщениям
Вы не можете скачивать файлы