Важное объявление!
У Нас Все раздачи мультитрекерные, при нуле пиров в релизах, можете смело вставать на закачку!
 
Автор Сообщение

HUNTER

Стаж:
4 года 4 месяца
Сообщений:
56734

Репутация: 101

[+] [-]
Вне форума [Профиль] [ЛС]

Застрявшие во времени / Frozen in Time
Страна: США
Жанр: Комедия
Продолжительность: 0:43:49
Год выпуска: 2014
Перевод: Одноголосый закадровый (Max Nabokov)
Русские субтитры: нет
Режиссёр: Алекс Люн / Alex Leung
Роли озвучивали: Edward Asner, Drake Bell, Valin Shinyei...
Описание: Случилось, что в канун Рождества, Пети и Эрик Портл забрались в мастерскую своего дедушки, несмотря на то, что родители стого-настрого запрещали им это делать. Там они испортили необыкновенные часы, способные останавливать время. И в тот же миг они стали проживать этот день заново. Но то, что сперва казалось забавным, быстро надоело. Теперь им предстоит разобраться от чего они застряли в этом дне. Может причина в их плохом поведении и еще не поздно все исправить. Ведь иначе, Рождество никогда не наступит.
Семпл: http://multi-up.com/1024863
Качество: HDTVRip
Формат: AVI
Видео: 720x400 (1.80:1), 23.976 fps, XviD build 50 ~1925 kbps avg, 0.28 bit/pixel
Аудио: 48 kHz, AC3 Dolby Digital, 2/0 (L,R) ch, ~192.00 kbps avg

Подробные технические данные

GeneralComplete name : D:\MOVIE\Frozen in Time.2014.Max Nabokov.aviFormat : AVIFormat/Info : Audio Video InterleaveFile size : 667 MiBDuration : 43mn 49sOverall bit rate : 2 127 KbpsWriting application : VirtualDubMod 1.5.10.2 (build 2540/release)Writing library : VirtualDubMod build 2540/release
VideoID : 0Format : MPEG-4 VisualFormat profile : Advanced Simple@L5Format settings, BVOP : 1Format settings, QPel : NoFormat settings, GMC : No warppointsFormat settings, Matrix : Default (H.263)Codec ID : XVIDCodec ID/Hint : XviDDuration : 43mn 49sBit rate : 1 926 KbpsWidth : 720 pixelsHeight : 400 pixelsDisplay aspect ratio : 16:9Frame rate : 23.976 fpsColor space : YUVChroma subsampling : 4:2:0Bit depth : 8 bitsScan type : ProgressiveCompression mode : LossyBits/(Pixel*Frame) : 0.279Stream size : 604 MiB (91%)Writing library : XviD 1.2.1 (UTC 2008-12-04)
AudioID : 1Format : AC-3Format/Info : Audio Coding 3Mode extension : CM (complete main)Format settings, Endianness : BigCodec ID : 2000Duration : 43mn 49sBit rate mode : ConstantBit rate : 192 KbpsChannel(s) : 2 channelsChannel positions : Front: L RSampling rate : 48.0 KHzBit depth : 16 bitsCompression mode : LossyStream size : 60.2 MiB (9%)Alignment : Split accross interleavesInterleave, duration : 42 ms (1.00 video frame)Interleave, preload duration : 500 ms

Скриншоты


_________________
Показать сообщения:    

Текущее время: Сегодня 18:02

Часовой пояс: GMT



Вы не можете начинать темы
Вы не можете отвечать на сообщения
Вы не можете редактировать свои сообщения
Вы не можете удалять свои сообщения
Вы не можете голосовать в опросах
Вы не можете прикреплять файлы к сообщениям
Вы не можете скачивать файлы