Важное объявление!
У Нас Все раздачи мультитрекерные, при нуле пиров в релизах, можете смело вставать на закачку!
 
Автор Сообщение

HUNTER

Стаж:
4 года 4 месяца
Сообщений:
56722

Репутация: 101

[+] [-]
Вне форума [Профиль] [ЛС]

Засада в заливе / Засада в бухте / Ambush Bay-
Страна: США
Студия: Courageous Films, MGM
Жанр: Военный, драма
Год выпуска: 1966
Продолжительность: 01:45:08
Перевод: Профессиональный (двухголосый закадровый) НТВ+
Cубтитры: нет
Оригинальная аудиодорожка: английский-Режиссер: Рон Уинстон / Ron Winston
В ролях: Хью О’Брайен, Микки Руни, Джеймс Митчэм, Питер Мастерсон, Гарри Лоутер, Грегг Амстердам, Jim Anauo, Тони Смит, Клем Стэндлер, Амаду Абельо...- | Релиз: -Описание: Филлипины 1944 г. Диверсионная операция морских пехотинцев США на Филиппинах - в японском тылу пытается соединиться с местными филиппинскими партизанами.-Семпл: http://sendfile.su/1080867-Тип релиза: HDTV 1080i
Контейнер: TS
Видео: 1920x1080i (16:9), 25.000 fps, AVC, ~6150 kbps, 0.059 bits/pixel
Аудио 1: Russian, 48.0 KHz, MP2, 2 ch, 192 kbps
Аудио 2: English, 48.0 KHz, MP2, 2 ch, 192 kbps

MediaInfo

GeneralUnique ID : 177880571653859238597076357318776575628 (0x85D28D4C6AE2041E8C1A3821C5A1D68C)Complete name : Ambush Bay 1966 HDTV 1080i MGMHD.rus.eng.mkvFormat : MatroskaFormat version : Version 4 / Version 2File size : 4.90 GiBDuration : 1h 45mnOverall bit rate : 6 666 KbpsEncoded date : UTC 2015-01-30 21:12:25Writing application : mkvmerge v7.5.0 ('Glass Culture') 64bit built on Jan 4 2015 16:48:44Writing library : libebml v1.3.1 + libmatroska v1.4.2
VideoID : 1Format : AVCFormat/Info : Advanced Video CodecFormat profile : High@L4.0Format settings, CABAC : YesFormat settings, ReFrames : 4 framesCodec ID : V_MPEG4/ISO/AVCDuration : 1h 45mnBit rate : 6 150 KbpsWidth : 1 920 pixelsHeight : 1 080 pixelsDisplay aspect ratio : 16:9Frame rate mode : ConstantFrame rate : 25.000 fpsStandard : ComponentColor space : YUVChroma subsampling : 4:2:0Bit depth : 8 bitsScan type : InterlacedScan order : Top Field FirstBits/(Pixel*Frame) : 0.119Stream size : 4.52 GiB (92%)Language : EnglishDefault : YesForced : NoColor primaries : BT.709Transfer characteristics : BT.709Matrix coefficients : BT.709Color range : Limited
Audio #1ID : 2Format : MPEG AudioFormat version : Version 1Format profile : Layer 2Codec ID : A_MPEG/L2Codec ID/Hint : MP2Duration : 1h 45mnBit rate mode : ConstantBit rate : 192 KbpsChannel(s) : 2 channelsSampling rate : 48.0 KHzCompression mode : LossyStream size : 144 MiB (3%)Language : RussianDefault : YesForced : No
Audio #2ID : 3Format : MPEG AudioFormat version : Version 1Format profile : Layer 2Codec ID : A_MPEG/L2Codec ID/Hint : MP2Duration : 1h 45mnBit rate mode : ConstantBit rate : 192 KbpsChannel(s) : 2 channelsSampling rate : 48.0 KHzCompression mode : LossyStream size : 144 MiB (3%)Language : EnglishDefault : NoForced : No

Скриншоты


_________________
Показать сообщения:    

Текущее время: Сегодня 16:31

Часовой пояс: GMT



Вы не можете начинать темы
Вы не можете отвечать на сообщения
Вы не можете редактировать свои сообщения
Вы не можете удалять свои сообщения
Вы не можете голосовать в опросах
Вы не можете прикреплять файлы к сообщениям
Вы не можете скачивать файлы