Важное объявление!
У Нас Все раздачи мультитрекерные, при нуле пиров в релизах, можете смело вставать на закачку!
 
Автор Сообщение

HUNTER

Стаж:
4 года 4 месяца
Сообщений:
56749

Репутация: 101

[+] [-]
Вне форума [Профиль] [ЛС]

Западня / Entrapment-
Страна: США, Германия, Великобритания
Студия: Twentieth Century Fox Film Corporation
Жанр: Боевик, триллер, мелодрама, криминал
Год выпуска: 1999
Продолжительность: 01:52:56
Перевод 1: Профессиональный (дублированный) Лицензия
Перевод 2: Профессиональный (двухголосый закадровый) НТВ+
Перевод 3: Профессиональный (многоголосый закадровый) ТНТ
Перевод 4: Профессиональный (многоголосый закадровый) н/о
Перевод 5: Одноголосый закадровый Д. Есарев
Перевод 6: Авторский (одноголосый закадровый) А. Гаврилов
Перевод 7: Авторский (одноголосый закадровый) А. Кашкин
Cубтитры: Русские, Английские
Оригинальная аудиодорожка: Английский
Режиссер: Джон Эмиел / Jon Amiel
В ролях: Шон Коннери, Кэтрин Зета-Джонс, Винг Рэймс, Уилл Пэттон, Мори Чайкин, Кевин МакНэлли, Терри О’Нил, Мадхав Шарма, Дэвид Ип, Тим Поттер.
Описание: Роберт МакДугал, уже пожилой, но еще крепкий мужчина импозантной внешности, - выдающийся вор международного масштаба. Во время кражи полотна Рембрандта судьба сводит его с очаровательной конкуренткой Вирджинией, тоже воровкой большого таланта. Она следователь страховой компании.
Еще ни разу МакДугала не удавалось поймать с поличным. Виджиния надеется, что ей удастся войти к нему в доверие и заманить в западню. Оба они - люди неординарные - начинают работать вместе. Крадут старинную китайскую золотую маску, а затем планируют кражу путем компьютерного перевода на свой счет с разных корпоративных счетов 8 млрд. долларов.
Однако случается непредвиденное: Роберт и Вирджиния испытывают друг к другу нежные чувства, между ними начинается роман. Это доставляет массу неудобств и им самим, и спецслужбам различных стран...-Рейтинг
[img]https://rating.kinopoisk.ru/8172.gif[/img]-Сэмпл
Тип релиза: BDRip 1080p
Контейнер: MKV
Исходник: Entrapment 1999 1080p Blu-Ray MPEG-2 DTS-HD MA 5.1
Видео: 1918x812 (2,35:1), 23.976 fps, x264, ~10400 kbps | Encode by HDMaNiAcS
Аудио 1: Russian: 48 kHz, AC3, 3/2 (L,C,R,l,r) + LFE ch, ~384 kbps | Дубляж, Лицензия
Аудио 2: Russian: 48 kHz, AC3, 2/0 (L,R) ch, ~192 kbps | Двухголосый закадровый, НТВ+
Аудио 3: Russian: 48 kHz, AC3, 2/0 (L,R) ch, ~192 kbps | Многоголосый закадровый, ТНТ
Аудио 4: Russian: 48 kHz, AC3, 2/0 (L,R) ch, ~192 kbps | Многоголосый закадровый
Аудио 5: Russian: 48 kHz, DTS, 3/2 (L,C,R,l,r) + LFE ch, ~1509 kbps | Одноголосый закадровый, Д. Есарев
Аудио 6: Russian: 48 kHz, DTS, 3/2 (L,C,R,l,r) + LFE ch, ~1509 kbps | Одноголосый закадровый, А. Гаврилов
Аудио 7: Russian: 48 kHz, AC3, 2/0 (L,R) ch, ~192 kbps | Одноголосый закадровый, А. Кашкин
Аудио 8: English: 48 kHz, DTS, 3/2 (L,C,R,l,r) + LFE ch, ~1509 kbps
Аудио 9: English: 48 kHz, AC3, 2/0 (L,R) ch, ~192 kbps | Commentary by director Jon Amiel
Субтитры: Русские (Forced, Full), Английские (Full, SDH, Commentary)
Формат субтитров: softsub (SRT)

Дополнительно

За форсированые субтитры спасибо xxllxx.
За работу над дорожкой А. Гаврилова спасибо Skazhutin.
Перевод Д. Есарева, доступен благодаря ресурсу "Переулок Переводмана". Заказ перевода - Star Dog, BIMMER, RW, Pr0peLLer, mv73, sivservik, igrok2012, shandorra, kerzon, dikii. Работа со звуком Skazhutin.
ENCODE DATE..: 28-01-2016 (D:M:Y)

MediaInfo

Общее
Unique ID : 226318643370972455402112910923037706328 (0xAA43629E0C5B3639B71268DFC8548858)
Complete name : E:\video_rutracker\Entrapment.1999.1080p.BluRay.7xRus.2xEng.x264.mkv
Format : Matroska
Format version : Version 2
File size : 12,8 Гбайт
Duration : 1 ч. 52 м.
Overall bit rate : 16,2 Мбит/сек
Movie name : Entrapment.1999.1080p | RuTracker | igrok2012
Encoded date : UTC 2016-07-31 15:49:37
Writing application : mkvmerge v8.3.0 ('Over the Horizon') 64bit
Writing library : libebml v1.3.1 + libmatroska v1.4.2
Cover : Yes
Attachments : cover.jpg
Видео
ID : 1
Format : AVC
Format/Info : Advanced Video Codec
Format profile : High@L4.1
Format settings, CABAC : Да
Format settings, ReFrames : 5 кадров
Codec ID : V_MPEG4/ISO/AVC
Duration : 1 ч. 52 м.
Bit rate : 10,0 Мбит/сек
Width : 1918 пикселей
Height : 812 пикселей
Display aspect ratio : 2,35:1
Frame rate mode : Постоянный
Frame rate : 23,976 (24000/1001) кадра/сек
Color space : YUV
Chroma subsampling : 4:2:0
Bit depth : 8 бит
Scan type : Прогрессивная
Bits/(Pixel*Frame) : 0.269
Stream size : 7,92 Гбайт (62%)
Title : Encode by HDMaNiAcS
Writing library : x264 core 146 r2538 121396c
Encoding settings : cabac=1 / ref=5 / deblock=1:-3:-3 / analyse=0x3:0x133 / me=umh / subme=11 / psy=1 / psy_rd=1.00:0.00 / mixed_ref=1 / me_range=32 / chroma_me=1 / trellis=2 / 8x8dct=1 / cqm=0 / deadzone=21,11 / fast_pskip=0 / chroma_qp_offset=-2 / threads=60 / lookahead_threads=6 / sliced_threads=0 / nr=0 / decimate=0 / interlaced=0 / bluray_compat=0 / constrained_intra=0 / bframes=12 / b_pyramid=2 / b_adapt=2 / b_bias=0 / direct=3 / weightb=1 / open_gop=0 / weightp=2 / keyint=240 / keyint_min=23 / scenecut=40 / intra_refresh=0 / rc_lookahead=150 / rc=crf / mbtree=0 / crf=17.0 / qcomp=0.60 / qpmin=0 / qpmax=69 / qpstep=4 / vbv_maxrate=62500 / vbv_bufsize=78125 / crf_max=0.0 / nal_hrd=none / filler=0 / ip_ratio=1.40 / pb_ratio=1.30 / aq=1:0.80
Language : English
Default : Да
Forced : Нет
Аудио #1
ID : 2
Format : AC-3
Format/Info : Audio Coding 3
Mode extension : CM (complete main)
Format settings, Endianness : Big
Codec ID : A_AC3
Duration : 1 ч. 52 м.
Bit rate mode : Постоянный
Bit rate : 384 Кбит/сек
Channel(s) : 6 каналов
Channel positions : Front: L C R, Side: L R, LFE
Sampling rate : 48,0 КГц
Frame rate : 31,250 кадров/сек (1536 spf)
Compression mode : С потерями
Stream size : 310 Мбайт (2%)
Title : Дубляж, Лицензия
Language : Russian
Default : Да
Forced : Нет
Аудио #2
ID : 3
Format : AC-3
Format/Info : Audio Coding 3
Mode extension : CM (complete main)
Format settings, Endianness : Big
Codec ID : A_AC3
Duration : 1 ч. 52 м.
Bit rate mode : Постоянный
Bit rate : 192 Кбит/сек
Channel(s) : 2 канала
Channel positions : Front: L R
Sampling rate : 48,0 КГц
Frame rate : 31,250 кадров/сек (1536 spf)
Compression mode : С потерями
Stream size : 155 Мбайт (1%)
Title : Двухголосый закадровый, НТВ+
Language : Russian
Default : Нет
Forced : Нет
Аудио #3
ID : 4
Format : AC-3
Format/Info : Audio Coding 3
Mode extension : CM (complete main)
Format settings, Endianness : Big
Codec ID : A_AC3
Duration : 1 ч. 52 м.
Bit rate mode : Постоянный
Bit rate : 192 Кбит/сек
Channel(s) : 2 канала
Channel positions : Front: L R
Sampling rate : 48,0 КГц
Frame rate : 31,250 кадров/сек (1536 spf)
Compression mode : С потерями
Stream size : 155 Мбайт (1%)
Title : Многоголосый закадровый, ТНТ
Language : Russian
Default : Нет
Forced : Нет
Аудио #4
ID : 5
Format : AC-3
Format/Info : Audio Coding 3
Mode extension : CM (complete main)
Format settings, Endianness : Big
Codec ID : A_AC3
Duration : 1 ч. 52 м.
Bit rate mode : Постоянный
Bit rate : 192 Кбит/сек
Channel(s) : 2 канала
Channel positions : Front: L R
Sampling rate : 48,0 КГц
Frame rate : 31,250 кадров/сек (1536 spf)
Compression mode : С потерями
Stream size : 155 Мбайт (1%)
Title : Многоголосый закадровый
Language : Russian
Default : Нет
Forced : Нет
Аудио #5
ID : 6
Format : DTS
Format/Info : Digital Theater Systems
Mode : 16
Format settings, Endianness : Big
Codec ID : A_DTS
Duration : 1 ч. 52 м.
Bit rate mode : Постоянный
Bit rate : 1509 Кбит/сек
Channel(s) : 6 каналов
Channel positions : Front: L C R, Side: L R, LFE
Sampling rate : 48,0 КГц
Frame rate : 93,750 кадра/сек (512 spf)
Bit depth : 24 бит
Compression mode : С потерями
Stream size : 1,19 Гбайт (9%)
Title : Одноголосый закадровый, Д. Есарев
Language : Russian
Default : Нет
Forced : Нет
Аудио #6
ID : 7
Format : DTS
Format/Info : Digital Theater Systems
Mode : 16
Format settings, Endianness : Big
Codec ID : A_DTS
Duration : 1 ч. 52 м.
Bit rate mode : Постоянный
Bit rate : 1509 Кбит/сек
Channel(s) : 6 каналов
Channel positions : Front: L C R, Side: L R, LFE
Sampling rate : 48,0 КГц
Frame rate : 93,750 кадра/сек (512 spf)
Bit depth : 24 бит
Compression mode : С потерями
Stream size : 1,19 Гбайт (9%)
Title : Одноголосый закадровый, А. Гаврилов
Language : Russian
Default : Нет
Forced : Нет
Аудио #7
ID : 8
Format : AC-3
Format/Info : Audio Coding 3
Mode extension : CM (complete main)
Format settings, Endianness : Big
Codec ID : A_AC3
Duration : 1 ч. 52 м.
Bit rate mode : Постоянный
Bit rate : 192 Кбит/сек
Channel(s) : 2 канала
Channel positions : Front: L R
Sampling rate : 48,0 КГц
Frame rate : 31,250 кадров/сек (1536 spf)
Compression mode : С потерями
Stream size : 155 Мбайт (1%)
Title : Одноголосый закадровый, А. Кашкин
Language : Russian
Default : Нет
Forced : Нет
Аудио #8
ID : 9
Format : DTS
Format/Info : Digital Theater Systems
Mode : 16
Format settings, Endianness : Big
Codec ID : A_DTS
Duration : 1 ч. 52 м.
Bit rate mode : Постоянный
Bit rate : 1509 Кбит/сек
Channel(s) : 6 каналов
Channel positions : Front: L C R, Side: L R, LFE
Sampling rate : 48,0 КГц
Frame rate : 93,750 кадра/сек (512 spf)
Bit depth : 24 бит
Compression mode : С потерями
Stream size : 1,19 Гбайт (9%)
Language : English
Default : Нет
Forced : Нет
Аудио #9
ID : 10
Format : AC-3
Format/Info : Audio Coding 3
Mode extension : CM (complete main)
Format settings, Endianness : Big
Codec ID : A_AC3
Duration : 1 ч. 52 м.
Bit rate mode : Постоянный
Bit rate : 192 Кбит/сек
Channel(s) : 2 канала
Channel positions : Front: L R
Sampling rate : 48,0 КГц
Frame rate : 31,250 кадров/сек (1536 spf)
Compression mode : С потерями
Stream size : 155 Мбайт (1%)
Title : Commentary by director Jon Amiel
Language : English
Default : Нет
Forced : Нет
Текст #1
ID : 11
Format : UTF-8
Codec ID : S_TEXT/UTF8
Codec ID/Info : UTF-8 Plain Text
Title : Forced
Language : Russian
Default : Да
Forced : Нет
Текст #2
ID : 12
Format : UTF-8
Codec ID : S_TEXT/UTF8
Codec ID/Info : UTF-8 Plain Text
Title : Full
Language : Russian
Default : Нет
Forced : Нет
Текст #3
ID : 13
Format : UTF-8
Codec ID : S_TEXT/UTF8
Codec ID/Info : UTF-8 Plain Text
Language : English
Default : Нет
Forced : Нет
Текст #4
ID : 14
Format : UTF-8
Codec ID : S_TEXT/UTF8
Codec ID/Info : UTF-8 Plain Text
Title : SDH
Language : English
Default : Нет
Forced : Нет
Текст #5
ID : 15
Format : UTF-8
Codec ID : S_TEXT/UTF8
Codec ID/Info : UTF-8 Plain Text
Title : Commentary
Language : English
Default : Нет
Forced : Нет
Меню
00:00:00.000 : en:Main Titles
00:01:55.115 : en:Hi-Tech Robbery
00:09:22.061 : en:A Suspect
00:13:31.227 : en:Entrapment
00:20:01.867 : en:Blackmail
00:25:12.010 : en:Advanced Preparation
00:39:28.992 : en:The Party Dress
00:42:24.584 : en:Upstairs
00:45:17.965 : en:The Masked Ball
00:47:23.174 : en:The Mask
00:56:17.749 : en:Truth Or Dare
00:58:30.340 : en:It's A Bank
01:04:21.066 : en:Sizing Up The Job
01:07:18.493 : en:Show And Tell
01:09:59.028 : en:Changing The Rules
01:19:42.695 : en:New Year's Eve
01:26:08.622 : en:Countdown
01:27:29.786 : en:System Breach
01:28:50.659 : en:Elevator Five
01:31:31.486 : en:Escape
01:35:16.461 : en:Plan B
01:38:27.652 : en:The Way It Has To Be
01:43:30.996 : en:The End Of A Terrible Friendship
01:47:25.814 : en:End Titles

Скриншоты


Скриншоты сравнения

igrok2012 | [url=viewtopic.php?t=3452053]Гном[/url]

-igrok2012 | [url=viewtopic.php?t=1310550]vaslav[/url]


_________________
Показать сообщения:    

Текущее время: Сегодня 00:02

Часовой пояс: GMT



Вы не можете начинать темы
Вы не можете отвечать на сообщения
Вы не можете редактировать свои сообщения
Вы не можете удалять свои сообщения
Вы не можете голосовать в опросах
Вы не можете прикреплять файлы к сообщениям
Вы не можете скачивать файлы