Важное объявление!
У Нас Все раздачи мультитрекерные, при нуле пиров в релизах, можете смело вставать на закачку!
 
Автор Сообщение

HUNTER

Стаж:
4 года 4 месяца
Сообщений:
56808

Репутация: 101

[+] [-]
Вне форума [Профиль] [ЛС]

| Все релизы мультфильма || BDRip-AVC, 2.18 GB |- P R E S E N T SЗамбезия / Zambezia-
Страна: ЮАР
Жанр: мультфильм, приключения, семейный
Продолжительность: 01:22:29
Год выпуска: 2012
Перевод: Профессиональный (полное дублирование)
Субтитры: есть-Режиссёр: Уэйн Тонли / Wayne Thornley
Роли озвучивали: Эбигейл Бреслин, Кори Бертон, Джим Каммингс, Норин ДеВулф, Ли Дуру, Джефф Голдблюм, Ричард Э. Грант, Таня Гунади, Сэмюэл Л. Джексон, Джереми Суарес, Леонард Нимой...
Роли дублировали: Вероника Саркисова, Даниил Эльдаров, Федор Добронравов, Анна Ардова, Эвелина Блёданс, Гавриил Гордеев, Сергей Чихачев, Пётр Иващенко и др.- | | -Описание: В мультфильме рассказывается история жизни юного соколёнка по имени Кай, его приключения, характер, комичные ситуации в которые он попадает на пути к своей главной цели, на пути к заветному птичьему городку Замбезия, в котором он от всей души желает отыскать новых друзей, которые бы скрасили его одиночество и не оставили в беде. Однако для начала ему необходимо преодолеть путь, который полон опасностей и неожиданных поворотов...-Доп. информация: BDRip-AVC сделан с Blu-Ray диска из моей коллекции (US Transfer).
Отдельное спасибо xfiles за подготовку русских субтитров.
-Сэмпл/Sample (17 MB, 1 минута)-Качество: BDRip-AVC
Формат: MKV
Видео: 1152x648 (1.778:1), 23,976 fps, ~2884 kbps avg, 0.161 bit/pixel
Аудио #1: Русский, AC3, 6 ch, 48 kHz, 448 kbps - Дубляж | Студия "Централ Продакшн Интернейшенал Групп"
Аудио #2: English, AC3, 6 ch, 48 kHz, 448 kbps - Original
Субтитры: Русские (полные), English (Full, SDH), French (Full), Spanish (Full)
Навигация по главам: есть (16 не именованных глав)

MediaInfo / x264Log

x264Log

raw [info]: 1152x648p 1:1 @ 24000/1001 fps (cfr)x264 [info]: using SAR=1/1x264 [info]: using cpu capabilities: MMX2 SSE2Fast SSSE3 SSE4.2 AVX XOP FMA4 FMA3 LZCNT BMI1x264 [info]: profile High, level 4.1x264 [info]: frame I:1135 Avg QP:13.38 size:132284 PSNR Mean Y:48.96 U:51.32 V:51.52 Avg:49.56 Global:48.78x264 [info]: frame P:33494 Avg QP:16.07 size: 27207 PSNR Mean Y:47.53 U:50.45 V:50.74 Avg:48.21 Global:47.23x264 [info]: frame B:84026 Avg QP:19.03 size: 8602 PSNR Mean Y:47.16 U:50.49 V:50.82 Avg:47.90 Global:46.89x264 [info]: consecutive B-frames: 5.6% 4.7% 26.8% 19.8% 14.7% 22.1% 2.0% 1.4% 0.8% 0.3% 0.6% 1.1% 0.1%x264 [info]: mb I I16..4: 3.6% 65.1% 31.3%x264 [info]: mb P I16..4: 0.9% 12.1% 2.6% P16..4: 23.4% 26.2% 11.3% 2.7% 0.3% skip:20.3%x264 [info]: mb B I16..4: 0.1% 1.9% 0.3% B16..8: 26.5% 15.7% 2.8% direct: 2.9% skip:49.7% L0:41.9% L1:45.9% BI:12.2%x264 [info]: 8x8 transform intra:76.3% inter:52.3%x264 [info]: coded y,uvDC,uvAC intra: 85.5% 81.2% 62.9% inter: 12.7% 9.7% 3.3%x264 [info]: i16 v,h,dc,p: 21% 14% 6% 59%x264 [info]: i8 v,h,dc,ddl,ddr,vr,hd,vl,hu: 11% 13% 8% 9% 11% 10% 12% 11% 16%x264 [info]: i4 v,h,dc,ddl,ddr,vr,hd,vl,hu: 11% 9% 7% 9% 16% 12% 14% 9% 13%x264 [info]: i8c dc,h,v,p: 37% 30% 16% 17%x264 [info]: Weighted P-Frames: Y:2.9% UV:1.7%x264 [info]: ref P L0: 55.3% 8.3% 13.4% 6.3% 4.5% 3.6% 3.1% 1.7% 1.4% 1.2% 0.9% 0.3% 0.0%x264 [info]: ref B L0: 70.2% 12.9% 6.4% 3.1% 2.4% 1.9% 1.5% 0.9% 0.6% 0.2%x264 [info]: ref B L1: 91.2% 8.8%x264 [info]: SSIM Mean Y:0.9905636 (20.252db)x264 [info]: PSNR Mean Y:47.278 U:50.489 V:50.803 Avg:48.002 Global:47.000 kb/s:2884.14encoded 118655 frames, 9.36 fps, 2884.14 kb/s
GeneralUnique ID : 173412224393239108229497389318535328653 (0x8275FAC4FAD69D0B96BF315B4D53338D)Complete name : Zambezia.2012.USTransfer.BDRip-AVC.648p.dfcbit.mkvFormat : MatroskaFormat version : Version 2File size : 2.18 GiBDuration : 1h 22mnOverall bit rate : 3 783 KbpsEncoded date : UTC 2014-02-28 17:38:54Writing application : mkvmerge v4.0.0 ('The Stars were mine') built on Jun 6 2010 16:18:42Writing library : libebml v1.0.0 + libmatroska v1.0.0
VideoID : 1Format : AVCFormat/Info : Advanced Video CodecFormat profile : High@L4.1Format settings, CABAC : YesFormat settings, ReFrames : 11 framesCodec ID : V_MPEG4/ISO/AVCDuration : 1h 22mnBit rate : 2 884 KbpsWidth : 1 152 pixelsHeight : 648 pixelsDisplay aspect ratio : 16:9Frame rate mode : ConstantFrame rate : 23.976 fpsColor space : YUVChroma subsampling : 4:2:0Bit depth : 8 bitsScan type : ProgressiveBits/(Pixel*Frame) : 0.161Stream size : 1.66 GiB (74%)Title : NTSC, 1152x648 (1.778:1), BDRip-AVC 648p - tRuAVC & Multfilmy [DFCbit]Writing library : x264 core 142 r2389kMod 956c8d8Encoding settings : cabac=1 / ref=11 / deblock=1:-2:-1 / analyse=0x3:0x133 / me=umh / subme=11 / psy=1 / fade_compensate=0.00 / psy_rd=0.63:0.00 / mixed_ref=1 / me_range=32 / chroma_me=1 / trellis=2 / 8x8dct=1 / cqm=0 / deadzone=21,11 / fast_pskip=0 / chroma_qp_offset=-2 / threads=12 / lookahead_threads=3 / sliced_threads=0 / nr=0 / decimate=1 / interlaced=0 / bluray_compat=0 / constrained_intra=0 / fgo=0 / bframes=12 / b_pyramid=2 / b_adapt=2 / b_bias=0 / direct=1 / weightb=1 / open_gop=0 / weightp=2 / keyint=250 / keyint_min=23 / scenecut=40 / intra_refresh=0 / rc_lookahead=70 / rc=2pass / mbtree=0 / bitrate=2884 / ratetol=1.0 / qcomp=0.81 / qpmin=0 / qpmax=69 / qpstep=4 / cplxblur=20.0 / qblur=0.5 / vbv_maxrate=50000 / vbv_bufsize=62500 / nal_hrd=none / filler=0 / ip_ratio=1.40 / pb_ratio=1.30 / aq=3:0.90Language : EnglishDefault : YesForced : NoColor primaries : BT.709Transfer characteristics : BT.709Matrix coefficients : BT.709
Audio #1ID : 2Format : AC-3Format/Info : Audio Coding 3Mode extension : CM (complete main)Format settings, Endianness : BigCodec ID : A_AC3Duration : 1h 22mnBit rate mode : ConstantBit rate : 448 KbpsChannel(s) : 6 channelsChannel positions : Front: L C R, Side: L R, LFESampling rate : 48.0 KHzBit depth : 16 bitsCompression mode : LossyStream size : 264 MiB (12%)Title : AC3, 6 ch, 48 kHz, 448 kbps - Дубляж | Студия "Централ Продакшн Интернейшенал Групп"Language : RussianDefault : YesForced : No
Audio #2ID : 3Format : AC-3Format/Info : Audio Coding 3Mode extension : CM (complete main)Format settings, Endianness : BigCodec ID : A_AC3Duration : 1h 22mnBit rate mode : ConstantBit rate : 448 KbpsChannel(s) : 6 channelsChannel positions : Front: L C R, Side: L R, LFESampling rate : 48.0 KHzBit depth : 16 bitsCompression mode : LossyStream size : 264 MiB (12%)Title : AC3, 6 ch, 48 kHz, 448 kbps - OriginalLanguage : EnglishDefault : NoForced : No
Text #1ID : 4Format : UTF-8Codec ID : S_TEXT/UTF8Codec ID/Info : UTF-8 Plain TextTitle : SRT, FullLanguage : RussianDefault : NoForced : No
Text #2ID : 5Format : UTF-8Codec ID : S_TEXT/UTF8Codec ID/Info : UTF-8 Plain TextTitle : SRT, FullLanguage : EnglishDefault : NoForced : No
Text #3ID : 6Format : UTF-8Codec ID : S_TEXT/UTF8Codec ID/Info : UTF-8 Plain TextTitle : SRT, (SDH)Language : EnglishDefault : NoForced : No
Text #4ID : 7Format : UTF-8Codec ID : S_TEXT/UTF8Codec ID/Info : UTF-8 Plain TextTitle : SRT, FullLanguage : FrenchDefault : NoForced : No
Text #5ID : 8Format : UTF-8Codec ID : S_TEXT/UTF8Codec ID/Info : UTF-8 Plain TextTitle : SRT, FullLanguage : SpanishDefault : NoForced : No
Menu00:00:00.000 : en:Chapter 100:04:47.454 : en:Chapter 200:11:04.372 : en:Chapter 300:14:17.398 : en:Chapter 400:18:25.563 : en:Chapter 500:25:07.464 : en:Chapter 600:30:47.637 : en:Chapter 700:34:21.518 : en:Chapter 800:40:36.059 : en:Chapter 900:45:44.867 : en:Chapter 1000:50:53.050 : en:Chapter 1100:55:06.261 : en:Chapter 1201:00:05.811 : en:Chapter 1301:05:55.076 : en:Chapter 1401:09:42.637 : en:Chapter 1501:15:03.165 : en:Chapter 16

Скриншоты

Скриншот с названием мультфильма
--BDRip-AVC


Source Blu-Ray

Релиз от групп | and | -Данный релиз не будет воспроизводиться на бытовых плеерах не поддерживающих MKV и H.264Обсуждение релизов в AVC формате || Свежие AVC рипы

_________________
Показать сообщения:    

Текущее время: Сегодня 08:37

Часовой пояс: GMT



Вы не можете начинать темы
Вы не можете отвечать на сообщения
Вы не можете редактировать свои сообщения
Вы не можете удалять свои сообщения
Вы не можете голосовать в опросах
Вы не можете прикреплять файлы к сообщениям
Вы не можете скачивать файлы