Важное объявление!
У Нас Все раздачи мультитрекерные, при нуле пиров в релизах, можете смело вставать на закачку!
 
Автор Сообщение

HUNTER

Стаж:
4 года 4 месяца
Сообщений:
56765

Репутация: 101

[+] [-]
Вне форума [Профиль] [ЛС]

Заложница 3
Taken 3
--Театральная версия-Страна: Франция
Год выпуска: 2014
Жанр: боевик, триллер
Продолжительность: 01:48:50--Перевод: Профессиональный (дублированный)
Cубтитры: Русские, Английские
Оригинальная аудиодорожка: Английская--Режиссер:
Оливье Мегатон / Olivier Megaton
В ролях:
Лиам Нисон, Мэгги Грэйс, Форест Уитакер, Фамке Янссен, Джонни Уэстон, Дюгрей Скотт, Джон Грайз, Лиленд Орсер, Ал Сапиенца, Эндрю Ховард--Описание:Жизнь бывшего правительственного агента Брайана Миллса рушится, когда его обвиняют в убийстве, которого он не совершал. Преследуемый опытным инспектором полиции, Миллс пытается отследить настоящего убийцу…--Доп. информация:
Источник видео, аудио, субтитров, celltimes - BDRemux (с другого трекера)
Меню создано с нуля, с помощью DVD-lab PRO
Видео перекодировано с помощью ProCoder 3 в 2 прохода.
Аудио получены с помощью программ eac3to и Sonic foundry Soft.-Меню: есть, статичное, не озвученное
Сэмпл: http://sendfile.su/1114079--Тип релиза: DVD5
Контейнер: DVD-Video
Видео: NTSC 16:9 (720x480) VBR, Auto Letterboxed
Аудио 1: Russian (Dolby AC3, 5.1 ch, 448 кб/с) - дубляж
Аудио 2: English (Dolby AC3, 5.1 ch, 448 кб/с) - оригиналРелиз-группа

MI исходника

Общее
Уникальный идентификатор : 181867080296095930701027897785826084264 (0x88D2535979FB4D3D820C24A48B4305A8)
Полное имя : D:\BD-DVD\taken 3.mkv
Формат : Matroska
Версия формата : Version 4 / Version 2
Размер файла : 25,7 Гбайт
Продолжительность : 1 ч. 48 м.
Режим общего битрейта : Переменный
Общий поток : 33,8 Мбит/сек
Название фильма : MR Sergei for NoNaMe Club
Дата кодирования : UTC 2015-04-17 08:45:20
Программа кодирования : mkvmerge v7.8.0 ('River Man') 64bit built on Mar 27 2015 16:31:37
Библиотека кодирования : libebml v1.3.1 + libmatroska v1.4.2
Attachements : Taken-3.jpg
DURATION : 01:48:57.152000000
NUMBER_OF_FRAMES : 204286
NUMBER_OF_BYTES : 522972160
_STATISTICS_WRITING_APP : mkvmerge v7.8.0 ('River Man') 64bit built on Mar 27 2015 16:31:37
_STATISTICS_WRITING_DATE_UTC : 2015-04-17 08:45:20
_STATISTICS_TAGS : BPS DURATION NUMBER_OF_FRAMES NUMBER_OF_BYTES
Видео
Идентификатор : 1
Формат : AVC
Формат/Информация : Advanced Video Codec
Профиль формата : High@L4.1
Параметр CABAC формата : Да
Параметр ReFrames формата : 4 кадра
Идентификатор кодека : V_MPEG4/ISO/AVC
Продолжительность : 1 ч. 48 м.
Вид битрейта : Переменный
Максимальный битрейт : 34,0 Мбит/сек
Ширина : 1920 пикселей
Высота : 1080 пикселей
Соотношение сторон : 16:9
Режим частоты кадров : Постоянный
Частота кадров : 23,976 кадра/сек
Цветовое пространство : YUV
Субдискретизация насыщенности : 4:2:0
Битовая глубина : 8 бит
Тип развёртки : Прогрессивная
Язык : English
Default : Да
Forced : Нет
Аудио #1
Идентификатор : 2
Формат : DTS
Формат/Информация : Digital Theater Systems
Режим : 16
Параметр Endianness формата : Big
Идентификатор кодека : A_DTS
Продолжительность : 1 ч. 48 м.
Вид битрейта : Постоянный
Битрейт : 768 Кбит/сек
Каналы : 6 каналов
Расположение каналов : Front: L C R, Side: L R, LFE
Частота : 48,0 КГц
Битовая глубина : 24 бит
Метод сжатия : С потерями
Размер потока : 599 Мбайт (2%)
Заголовок : DTS / 5.1 / 768 kbps / Licence BD EUR
Язык : Russian
Default : Да
Forced : Нет
Аудио #2
Идентификатор : 3
Формат : AC-3
Формат/Информация : Audio Coding 3
Расширение режима : CM (complete main)
Параметр Endianness формата : Big
Идентификатор кодека : A_AC3
Продолжительность : 1 ч. 48 м.
Вид битрейта : Постоянный
Битрейт : 640 Кбит/сек
Каналы : 6 каналов
Расположение каналов : Front: L C R, Side: L R, LFE
Частота : 48,0 КГц
Битовая глубина : 16 бит
Метод сжатия : С потерями
Размер потока : 499 Мбайт (2%)
Заголовок : AC3 / 5.1 / 640 kbps / Licence BD EUR
Язык : Russian
Default : Нет
Forced : Нет
Аудио #3
Идентификатор : 4
Формат : AC-3
Формат/Информация : Audio Coding 3
Расширение режима : CM (complete main)
Параметр Endianness формата : Big
Идентификатор кодека : A_AC3
Продолжительность : 1 ч. 48 м.
Вид битрейта : Постоянный
Битрейт : 448 Кбит/сек
Каналы : 6 каналов
Расположение каналов : Front: L C R, Side: L R, LFE
Частота : 48,0 КГц
Битовая глубина : 16 бит
Метод сжатия : С потерями
Размер потока : 349 Мбайт (1%)
Заголовок : AC3 / 5.1 / 448 kbps / Licence BD EUR
Язык : Ukrainian
Default : Нет
Forced : Нет
Аудио #4
Идентификатор : 5
Формат : DTS
Формат/Информация : Digital Theater Systems
Профиль формата : MA / Core
Режим : 16
Параметр Endianness формата : Big
Идентификатор кодека : A_DTS
Продолжительность : 1 ч. 48 м.
Вид битрейта : Переменный
Битрейт : Неизвестно / 1509 Кбит/сек
Каналы : 6 каналов
Расположение каналов : Front: L C R, Side: L R, LFE
Частота : 48,0 КГц
Битовая глубина : 24 бит
Метод сжатия : Без потерь / Lossy
Заголовок : DTS-HD MA / 5.1 / 3655 kbps / Original
Язык : English
Default : Нет
Forced : Нет
Аудио #5
Идентификатор : 6
Формат : AC-3
Формат/Информация : Audio Coding 3
Расширение режима : CM (complete main)
Параметр Endianness формата : Big
Идентификатор кодека : A_AC3
Продолжительность : 1 ч. 48 м.
Вид битрейта : Постоянный
Битрейт : 448 Кбит/сек
Каналы : 6 каналов
Расположение каналов : Front: L C R, Side: L R, LFE
Частота : 48,0 КГц
Битовая глубина : 16 бит
Метод сжатия : С потерями
Размер потока : 349 Мбайт (1%)
Заголовок : AC3 / 5.1 / 448 kbps / Descriptive
Язык : English
Default : Нет
Forced : Нет
Текст #1
Идентификатор : 7
Формат : UTF-8
Идентификатор кодека : S_TEXT/UTF8
Идентификатор кодека/Информация : UTF-8 Plain Text
Язык : Russian
Default : Нет
Forced : Нет
Текст #2
Идентификатор : 8
Формат : UTF-8
Идентификатор кодека : S_TEXT/UTF8
Идентификатор кодека/Информация : UTF-8 Plain Text
Язык : Ukrainian
Default : Нет
Forced : Нет
Текст #3
Идентификатор : 9
Формат : UTF-8
Идентификатор кодека : S_TEXT/UTF8
Идентификатор кодека/Информация : UTF-8 Plain Text
Язык : English
Default : Нет
Forced : Нет
Меню
00:00:00.000 : en:00:00:00.000
00:03:47.394 : en:00:03:47.394
00:09:14.053 : en:00:09:14.053
00:12:20.823 : en:00:12:20.823
00:14:45.343 : en:00:14:45.343
00:17:17.662 : en:00:17:17.662
00:22:11.121 : en:00:22:11.121
00:24:41.563 : en:00:24:41.563
00:26:27.169 : en:00:26:27.169
00:28:54.566 : en:00:28:54.566
00:31:10.660 : en:00:31:10.660
00:34:09.798 : en:00:34:09.798
00:36:27.310 : en:00:36:27.310
00:41:31.864 : en:00:41:31.864
00:44:49.061 : en:00:44:49.061
00:48:10.638 : en:00:48:10.638
00:52:43.243 : en:00:52:43.243
00:56:45.193 : en:00:56:45.193
01:00:27.540 : en:01:00:27.540
01:03:34.852 : en:01:03:34.852
01:04:51.763 : en:01:04:51.763
01:07:06.355 : en:01:07:06.355
01:11:02.591 : en:01:11:02.591
01:14:42.102 : en:01:14:42.102
01:16:38.635 : en:01:16:38.635
01:19:43.612 : en:01:19:43.612
01:23:55.655 : en:01:23:55.655
01:27:33.331 : en:01:27:33.331
01:31:16.429 : en:01:31:16.429
01:34:20.446 : en:01:34:20.446
01:40:30.649 : en:01:40:30.649
01:43:26.742 : en:01:43:26.742

DVDInfo

Title: Taken 3 DVD5
Size: 4.36 Gb ( 4 569 766,00 KBytes ) - DVD-5
Enabled regions: 1, 2, 3, 4, 5, 6, 7, 8
VTS_01 :
Play Length: 01:48:50
Video: NTSC 16:9 (720x480) VBR, Auto Letterboxed
Audio:
Russian (Dolby AC3, 6 ch)
English (Dolby AC3, 6 ch)
Subtitles:
Russian
Russian
English

Программы используемые для создания релиза

Видео
ProCoder 3 - конвертация видео
AviSynth - обработка видео
FFMpegSource2 - индексирование
Звук
eac3to- разборка на waw
Sonic foundry Soft-получение ac3 448
Програмы для разборки/сборки
eac3to - разложение BD на потоки
Работа с меню и реавторинг
DVD-lab PRO - создание меню
Adobe Photoshop - редактирование меню
DVDReMakePro - реавторинг диска

Скрипт

LoadPlugin("C:\Program Files (x86)\FFMpegSource2\ffms2.dll") # подключение декодера
FFVideoSource("D:\BD-DVD\taken 3.mkv") #открытие видео
LoadPlugin("D:\programs\autoyuy\AutoYUY2.dll") #подключение плагина
AutoYUY2() # конверсия цветового пространства
LoadPlugin("D:\programs\ColorMatrix\ColorMatrix.dll")
ColorMatrix(mode="Rec.709->Rec.601", inputFR=false, clamp=0) # 16-235
#ColorMatrix(mode="Rec.709->Rec.601", inputFR=true, clamp=0) # 0-255
BicubicResize(720, 480, 0, 0.5) #ресайз методом Catmull-Rom spline
AssumeFPS ("ntsc_film") #изменение частоты кадров под стандарт NTSC

-
-

Скриншоты меню

Скриншоты



-

Обложки


_________________
Показать сообщения:    

Текущее время: Сегодня 03:19

Часовой пояс: GMT



Вы не можете начинать темы
Вы не можете отвечать на сообщения
Вы не можете редактировать свои сообщения
Вы не можете удалять свои сообщения
Вы не можете голосовать в опросах
Вы не можете прикреплять файлы к сообщениям
Вы не можете скачивать файлы