Важное объявление!
У Нас Все раздачи мультитрекерные, при нуле пиров в релизах, можете смело вставать на закачку!
 
Автор Сообщение

HUNTER

Стаж:
4 года 4 месяца
Сообщений:
56719

Репутация: 101

[+] [-]
Вне форума [Профиль] [ЛС]

Законопослушный гражданин / Law Abiding Citizen
Режиссёрская версия /Unrated Director's Cut-
Страна: США
Студия: The Film Department, Warp Film, Evil Twins (I)
Жанр: Триллер, драма, криминал
Год выпуска: 2009
Продолжительность: 01:58:06
Перевод 1: Профессиональный (дублированный) R5, вставки MVO "Киномания" на расширенные эпизоды
Перевод 2: Профессиональный (многоголосый закадровый) Киномания
Перевод 3: Авторский (одноголосый закадровый) Ю. Сербин
Перевод 4: Авторский (одноголосый закадровый) А. Гаврилов
Перевод 5: Одноголосый закадровый Е. Гаевский
Перевод 6: Одноголосый закадровый В. Замез (zamez)
Cубтитры: Русские, Английские
Оригинальная аудиодорожка: Английский
Режиссер: Ф. Гари Грей / F. Gary Gray
В ролях: Джейми Фокс, Джерард Батлер, Колм Мини, Брюс МакГилл, Лесли Бибб, Майкл Ирби, Грегори Итцин, Реджина Холл, Кристиан Столте.
Описание: Добропорядочный житель Филадельфии Клайд Шелтон теряет семью в результате бандитского нападения. Но когда преступники оказались в руках правосудия, выяснилось, что юридической Системе удобнее пойти на сделку с одним из бандитов, чтобы дать высшую меру другому. Помощник окружного прокурора Ник Райс идет на эту сделку, вопреки протестам возмущенного Шелтона, свято верящего в безукоризненность Закона. Но его права были попраны… И тогда спустя годы безвестный мститель начинает творить собственную расправу над убийцами. Ник Райс достаточно быстро находит его. Это… Клайд Шелтон. Райсу кажется, что ему нетрудно добиться признания от раздавленного семейной трагедией Клайда. Каково же изумление всех работников Системы, когда они обнаруживают, что даже помещенный в тюрьму, этот человек способен на самую жестокую и изощренную месть. Более того, они оказались совершенно бессильны перед гениальной игрой и смертоносными ударами изолированного в одиночке Шелтона! Законопослушный гражданин начал беспощадную войну против всех них. И дело вовсе не в мести…-Рейтинг
[img]https://rating.kinopoisk.ru/406408.gif[/img]-Сэмпл
Тип релиза: BDRip 720p
Контейнер: MKV
Видео: 1280x534 (2,40:1), 23.976 fps, x264, ~7122 kbps | Encode by LolHD
Аудио 1: Russian: 48 kHz, AC3, 3/2 (L,C,R,l,r) + LFE ch, ~448 kbps | Дубляж R5, вставки MVO "Киномания"
Аудио 2: Russian: 48 kHz, AC3, 3/2 (L,C,R,l,r) + LFE ch, ~448 kbps | Многоголосый закадровый, Киномания
Аудио 3: Russian: 48 kHz, DTS, 3/2 (L,C,R,l,r) + LFE ch, ~1509 kbps | Одноголосый закадровый, Ю. Сербин
Аудио 4: Russian: 48 kHz, DTS, 3/2 (L,C,R,l,r) + LFE ch, ~1509 kbps | Одноголосый закадровый, А. Гаврилов
Аудио 5: Russian: 48 kHz, DTS, 3/2 (L,C,R,l,r) + LFE ch, ~1509 kbps | Одноголосый закадровый, Е. Гаевский
Аудио 6: Russian: 48 kHz, AC3, 3/2 (L,C,R,l,r) + LFE ch, ~384 kbps | Одноголосый закадровый, В. Замез (zamez)
Аудио 7: English: 48 kHz, DTS, 3/2 (L,C,R,l,r) + LFE ch, ~1509 kbps
Субтитры: Русские, Английские
Формат субтитров: softsub (SRT)

Дополнительно

За дубляж со вставками MVO спасибо [url=viewtopic.php?t=3156961]zim2001[/url].
За дорожки А. Гаврилова и Ю. Сербина спасибо участинкам HD AVO.
Перевод Е. Гаевского, доступен благодаря ресурсу "Переулок Переводмана". Заказ перевода ZeDOK, Pr0peLLer, кил хиппи, Kidman644, Wa1ker, анонимус, napaHouk, mv73, Антиквар, sa1992, 1woody1, wasp00000, Avatar-Lion. Работа со звуком Переводман.
В дорожках №3, №5, №6 присутствует ненормативная лексика!

MediaInfo

Общее
Unique ID : 194613616083437300257635976504085550294 (0x92693815A1716CB89809E99DC76794D6)
Complete name : E:\video_rutracker\Law.Abiding.Citizen.2009.Unrated.720p.BluRay.6xRus.Eng.H264.mkv
Format : Matroska
Format version : Version 2
File size : 12,0 Гбайт
Duration : 1 ч. 58 м.
Overall bit rate : 14,6 Мбит/сек
Movie name : Law.Abiding.Citizen.2009.Unrated.720p | RuTracker | igrok2012
Encoded date : UTC 2016-09-10 17:45:28
Writing application : mkvmerge v8.3.0 ('Over the Horizon') 64bit
Writing library : libebml v1.3.1 + libmatroska v1.4.2
Cover : Yes
Attachments : cover.jpg
Видео
ID : 1
Format : AVC
Format/Info : Advanced Video Codec
Format profile : High@L4.1
Format settings, CABAC : Да
Format settings, ReFrames : 12 кадров
Codec ID : V_MPEG4/ISO/AVC
Duration : 1 ч. 58 м.
Bit rate : 6993 Кбит/сек
Width : 1280 пикселей
Height : 534 пикселя
Display aspect ratio : 2,40:1
Frame rate mode : Постоянный
Frame rate : 23,976 (24000/1001) кадра/сек
Color space : YUV
Chroma subsampling : 4:2:0
Bit depth : 8 бит
Scan type : Прогрессивная
Bits/(Pixel*Frame) : 0.427
Stream size : 5,77 Гбайт (48%)
Title : Encode by LolHD
Writing library : x264 core 142 r2453kMod ea0ca51
Encoding settings : cabac=1 / ref=12 / deblock=1:-3:-3 / analyse=0x3:0x133 / me=umh / subme=10 / psy=1 / fade_compensate=0.00 / psy_rd=1.07:0.00 / mixed_ref=1 / me_range=24 / chroma_me=1 / trellis=2 / 8x8dct=1 / cqm=0 / deadzone=21,11 / fast_pskip=0 / chroma_qp_offset=-2 / threads=12 / lookahead_threads=3 / sliced_threads=0 / nr=0 / decimate=0 / interlaced=0 / bluray_compat=0 / constrained_intra=0 / fgo=0 / bframes=10 / b_pyramid=2 / b_adapt=2 / b_bias=0 / direct=3 / weightb=1 / open_gop=0 / weightp=2 / keyint=250 / keyint_min=23 / scenecut=40 / intra_refresh=0 / rc_lookahead=60 / rc=crf / mbtree=0 / crf=16.5000 / qcomp=0.60 / qpmin=0 / qpmax=69 / qpstep=4 / vbv_maxrate=50000 / vbv_bufsize=62500 / crf_max=0.0 / nal_hrd=none / filler=0 / ip_ratio=1.20 / pb_ratio=1.20 / aq=3:0.70
Language : English
Default : Да
Forced : Нет
Аудио #1
ID : 2
Format : AC-3
Format/Info : Audio Coding 3
Mode extension : CM (complete main)
Format settings, Endianness : Big
Codec ID : A_AC3
Duration : 1 ч. 58 м.
Bit rate mode : Постоянный
Bit rate : 448 Кбит/сек
Channel(s) : 6 каналов
Channel positions : Front: L C R, Side: L R, LFE
Sampling rate : 48,0 КГц
Frame rate : 31,250 кадров/сек (1536 spf)
Compression mode : С потерями
Stream size : 378 Мбайт (3%)
Title : Дубляж R5, вставки MVO "Киномания"
Language : Russian
Default : Да
Forced : Нет
Аудио #2
ID : 3
Format : AC-3
Format/Info : Audio Coding 3
Mode extension : CM (complete main)
Format settings, Endianness : Big
Codec ID : A_AC3
Duration : 1 ч. 58 м.
Bit rate mode : Постоянный
Bit rate : 448 Кбит/сек
Channel(s) : 6 каналов
Channel positions : Front: L C R, Side: L R, LFE
Sampling rate : 48,0 КГц
Frame rate : 31,250 кадров/сек (1536 spf)
Compression mode : С потерями
Stream size : 378 Мбайт (3%)
Title : Многоголосый закадровый, Киномания
Language : Russian
Default : Нет
Forced : Нет
Аудио #3
ID : 4
Format : DTS
Format/Info : Digital Theater Systems
Mode : 16
Format settings, Endianness : Big
Codec ID : A_DTS
Duration : 1 ч. 58 м.
Bit rate mode : Постоянный
Bit rate : 1509 Кбит/сек
Channel(s) : 6 каналов
Channel positions : Front: L C R, Side: L R, LFE
Sampling rate : 48,0 КГц
Frame rate : 93,750 кадра/сек (512 spf)
Bit depth : 24 бит
Compression mode : С потерями
Stream size : 1,24 Гбайт (10%)
Title : Одноголосый закадровый, Ю. Сербин
Language : Russian
Default : Нет
Forced : Нет
Аудио #4
ID : 5
Format : DTS
Format/Info : Digital Theater Systems
Mode : 16
Format settings, Endianness : Big
Codec ID : A_DTS
Duration : 1 ч. 58 м.
Bit rate mode : Постоянный
Bit rate : 1509 Кбит/сек
Channel(s) : 6 каналов
Channel positions : Front: L C R, Side: L R, LFE
Sampling rate : 48,0 КГц
Frame rate : 93,750 кадра/сек (512 spf)
Bit depth : 24 бит
Compression mode : С потерями
Stream size : 1,24 Гбайт (10%)
Title : Одноголосый закадровый, А. Гаврилов
Language : Russian
Default : Нет
Forced : Нет
Аудио #5
ID : 6
Format : DTS
Format/Info : Digital Theater Systems
Mode : 16
Format settings, Endianness : Big
Codec ID : A_DTS
Duration : 1 ч. 58 м.
Bit rate mode : Постоянный
Bit rate : 1509 Кбит/сек
Channel(s) : 6 каналов
Channel positions : Front: L C R, Side: L R, LFE
Sampling rate : 48,0 КГц
Frame rate : 93,750 кадра/сек (512 spf)
Bit depth : 24 бит
Compression mode : С потерями
Stream size : 1,24 Гбайт (10%)
Title : Одноголосый закадровый, Е. Гаевский
Language : Russian
Default : Нет
Forced : Нет
Аудио #6
ID : 7
Format : AC-3
Format/Info : Audio Coding 3
Mode extension : CM (complete main)
Format settings, Endianness : Big
Codec ID : A_AC3
Duration : 1 ч. 58 м.
Bit rate mode : Постоянный
Bit rate : 384 Кбит/сек
Channel(s) : 6 каналов
Channel positions : Front: L C R, Side: L R, LFE
Sampling rate : 48,0 КГц
Frame rate : 31,250 кадров/сек (1536 spf)
Compression mode : С потерями
Stream size : 324 Мбайт (3%)
Title : Одноголосый закадровый, В. Замез (zamez)
Language : Russian
Default : Нет
Forced : Нет
Аудио #7
ID : 8
Format : DTS
Format/Info : Digital Theater Systems
Mode : 16
Format settings, Endianness : Big
Codec ID : A_DTS
Duration : 1 ч. 58 м.
Bit rate mode : Постоянный
Bit rate : 1509 Кбит/сек
Channel(s) : 6 каналов
Channel positions : Front: L C R, Side: L R, LFE
Sampling rate : 48,0 КГц
Frame rate : 93,750 кадра/сек (512 spf)
Bit depth : 24 бит
Compression mode : С потерями
Stream size : 1,24 Гбайт (10%)
Language : English
Default : Нет
Forced : Нет
Текст #1
ID : 9
Format : UTF-8
Codec ID : S_TEXT/UTF8
Codec ID/Info : UTF-8 Plain Text
Language : Russian
Default : Нет
Forced : Нет
Текст #2
ID : 10
Format : UTF-8
Codec ID : S_TEXT/UTF8
Codec ID/Info : UTF-8 Plain Text
Language : English
Default : Нет
Forced : Нет
Меню
00:00:00.000 : en:Home Invasion
00:03:51.898 : en:What You Can Prove in Court
00:11:57.467 : en:Lethal Injection
00:20:41.740 : en:You Can't Fight Fate
00:29:01.239 : en:Taken Into Custody
00:39:48.094 : en:Make the Deal
00:43:34.529 : en:Contempt of Court
00:50:00.915 : en:Steak with All the Trimmings
00:58:59.828 : en:Born Tactician
01:07:36.803 : en:This Broken Thing
01:16:41.388 : en:It's Gonna Be Biblical
01:23:25.918 : en:City Under Siege
01:29:52.220 : en:Subterranean Passage
01:37:04.944 : en:Center of Gravity
01:42:41.238 : en:I Don't Make Deals with Murderers
01:50:46.849 : en:End Credits

Скриншоты

Скриншоты сравнения

LolHD | [url=viewtopic.php?t=3071471]HiDt[/url]


_________________
Показать сообщения:    

Текущее время: Сегодня 01:43

Часовой пояс: GMT



Вы не можете начинать темы
Вы не можете отвечать на сообщения
Вы не можете редактировать свои сообщения
Вы не можете удалять свои сообщения
Вы не можете голосовать в опросах
Вы не можете прикреплять файлы к сообщениям
Вы не можете скачивать файлы