Важное объявление!
У Нас Все раздачи мультитрекерные, при нуле пиров в релизах, можете смело вставать на закачку!
 
Автор Сообщение

HUNTER

Стаж:
4 года 4 месяца
Сообщений:
56790

Репутация: 101

[+] [-]
Вне форума [Профиль] [ЛС]

Зажигай / Зажигай, ребята / Light It Up«In the biggest situation in your life, How Far will you go to resist it?»-
Страна: США
Студия: Edmonds Entertainment Group (EEG), Fox 2000 Pictures
Жанр: Драма
Год выпуска: 1999
Продолжительность: 01:39:23-Перевод: Профессиональный (двухголосый закадровый) [отсюда спасибо amplified]
Cубтитры: английские, испанские
Оригинальная аудиодорожка: английский-Режиссер: Крэйг Болотин / Craig Bolotin-В ролях: Ашер Рэймонд, Форест Уитакер, Розарио Доусон, Роберт Ричард, Джадд Нельсон, Фредро Старр, Сара Гилберт, Клифтон Коллинз мл., Глинн Тёрмен, Вик Полицос-Описание: Иногда приходится брать в руки пистолет, чтобы тебя услышали. Они не хотят быть героями, они хотят, чтобы их выслушали. Шестеро учеников закрываются в своей школе и берут в заложники полицейского. Они не хотят денег, они просто пытаются привлечь к себе внимание и показать всем, что в таких условиях учиться просто невозможно.-Доп. информация: Вместо английской дорожки (2.0) добавил русскую. Меню подкорректировал
Бонусы: дополнительные материалы включают трейлер, интервью с актерами, видео клипы
Меню: есть, язык английский, анимированное, озвученное-Sample | IMDB | КиноПоиск-Тип релиза: DVD9 (Custom)
Контейнер: DVD-Video-Видео: NTSC 16:9 (720x480) VBR Auto Letterboxed
Аудио 1: AC3, 2/0 ch, 192Kbps, Delay 0 mSec [Russian_DVO]
Аудио 2: AC3, 3/2+LFE ch, 448Kbps, Delay 0 mSec [Original_Eng]-Релиз группы: -Используемое ПО
1. BeLight - mp3 - wav;
2. Adobe Audition - синхронизация;
3. Minnetonka Audio Software - wav - ac3;

4. PgcDemux - разборка оригинального DVD;
5. MuxMan - сборка DVD;
6. DVDReMake Pro - финальный проект.

DVDInfo
Title:
Size: 5.71 Gb ( 5 984 582 KBytes ) - DVD-9
Enabled regions: 1, 2, 3, 4, 5, 6, 7, 8
VTS_01 :
Play Length: 00:00:01
Video: NTSC 4:3 (720x480) VBR
VTS_02 :
Play Length: 01:39:23
Video: NTSC 16:9 (720x480) VBR, Auto Letterboxed
Audio:
Russian (Dolby AC3, 2 ch)
English (Dolby AC3, 6 ch)
Subtitles:
English
Espanol
VTS_03 :
Play Length: 00:02:31+00:05:44+00:03:49+00:04:11+00:00:31
Video: NTSC 4:3 (720x480) VBR
Audio:
English (Dolby AC3, 2 ch)
Menu Video:
NTSC 4:3 (720x480) VBR
Menu Audio:
Not specified (Dolby AC3, 2 ch)
Menu Subtitles:
Not specified
Menu English Language Unit :
Root Menu
Subpicture Menu
Audio Menu
Angle menu
Chapter (PTT) Menu
MediaInfo
General
Complete name : D:\Мои релизы\Light It Up [DVD9]\VIDEO_TS\VIDEO_TS.BUP
Format : DVD Video
Format profile : Menu
File size : 22.0 KiB
Video
ID : 224 (0xE0)
Format : MPEG Video
Format version : Version 2
Bit rate mode : Variable
Width : 720 pixels
Height : 480 pixels
Display aspect ratio : 4:3
Frame rate : 29.970 fps
Standard : NTSC
Compression mode : Lossy
Audio
Format : AC-3
Format/Info : Audio Coding 3
Channel(s) : 2 channels
Sampling rate : 48.0 KHz
Compression mode : Lossy
Text
Format : RLE
Format/Info : Run-length encoding
Bit depth : 2 bits
General
Complete name : D:\Мои релизы\Light It Up [DVD9]\VIDEO_TS\VIDEO_TS.IFO
Format : DVD Video
Format profile : Menu
File size : 22.0 KiB
Video
ID : 224 (0xE0)
Format : MPEG Video
Format version : Version 2
Bit rate mode : Variable
Width : 720 pixels
Height : 480 pixels
Display aspect ratio : 4:3
Frame rate : 29.970 fps
Standard : NTSC
Compression mode : Lossy
Audio
Format : AC-3
Format/Info : Audio Coding 3
Channel(s) : 2 channels
Sampling rate : 48.0 KHz
Compression mode : Lossy
Text
Format : RLE
Format/Info : Run-length encoding
Bit depth : 2 bits
General
Complete name : D:\Мои релизы\Light It Up [DVD9]\VIDEO_TS\VIDEO_TS.VOB
Format : MPEG-PS
File size : 70.0 KiB
Duration : 33ms
Overall bit rate : 17.4 Mbps
Video
ID : 224 (0xE0)
Format : MPEG Video
Format version : Version 2
Format profile : Main@Main
Format settings, BVOP : No
Format settings, Matrix : Default
Format settings, GOP : N=1
Duration : 33ms
Bit rate mode : Variable
Bit rate : 4 587 Kbps
Width : 720 pixels
Height : 480 pixels
Display aspect ratio : 16:9
Frame rate : 29.970 fps
Standard : NTSC
Color space : YUV
Chroma subsampling : 4:2:0
Bit depth : 8 bits
Scan type : Progressive
Scan order : Top Field First
Compression mode : Lossy
Bits/(Pixel*Frame) : 0.443
Stream size : 18.5 KiB (26%)
Menu
General
Complete name : D:\Мои релизы\Light It Up [DVD9]\VIDEO_TS\VTS_01_0.BUP
Format : DVD Video
Format profile : Program
File size : 18.0 KiB
Duration : 1s 0ms
Overall bit rate : 147 Kbps
Video
ID : 224 (0xE0)
Format : MPEG Video
Format version : Version 2
Duration : 1s 1ms
Bit rate mode : Variable
Bit rate : 135 Kbps
Width : 720 pixels
Height : 480 pixels
Display aspect ratio : 4:3
Frame rate : 29.970 fps
Standard : NTSC
Compression mode : Lossy
Bits/(Pixel*Frame) : 0.013
Stream size : 16.5 KiB (91%)
Menu
Duration : 1s 0ms
00:00:00.000 : Chapter 1
00:00:00.500 : Chapter 2
General
Complete name : D:\Мои релизы\Light It Up [DVD9]\VIDEO_TS\VTS_01_0.IFO
Format : DVD Video
Format profile : Program
File size : 18.0 KiB
Duration : 1s 0ms
Overall bit rate : 147 Kbps
Video
ID : 224 (0xE0)
Format : MPEG Video
Format version : Version 2
Duration : 1s 1ms
Bit rate mode : Variable
Bit rate : 135 Kbps
Width : 720 pixels
Height : 480 pixels
Display aspect ratio : 4:3
Frame rate : 29.970 fps
Standard : NTSC
Compression mode : Lossy
Bits/(Pixel*Frame) : 0.013
Stream size : 16.5 KiB (91%)
Menu
Duration : 1s 0ms
00:00:00.000 : Chapter 1
00:00:00.500 : Chapter 2
General
Complete name : D:\Мои релизы\Light It Up [DVD9]\VIDEO_TS\VTS_01_0.VOB
Format : MPEG-PS
File size : 40.0 KiB
Duration : 33ms
Overall bit rate : 9 930 Kbps
Video
ID : 224 (0xE0)
Format : MPEG Video
Format version : Version 2
Format profile : Main@Main
Format settings, BVOP : No
Format settings, Matrix : Default
Format settings, GOP : N=1
Duration : 33ms
Bit rate mode : Variable
Bit rate : 4 587 Kbps
Width : 720 pixels
Height : 480 pixels
Display aspect ratio : 16:9
Frame rate : 29.970 fps
Standard : NTSC
Color space : YUV
Chroma subsampling : 4:2:0
Bit depth : 8 bits
Scan type : Progressive
Scan order : Top Field First
Compression mode : Lossy
Bits/(Pixel*Frame) : 0.443
Stream size : 18.5 KiB (46%)
Menu
General
Complete name : D:\Мои релизы\Light It Up [DVD9]\VIDEO_TS\VTS_01_1.VOB
Format : MPEG-PS
File size : 20.0 KiB
Duration : 33ms
Overall bit rate : 4 965 Kbps
Video
ID : 224 (0xE0)
Format : MPEG Video
Format version : Version 2
Format profile : Main@Main
Format settings, BVOP : No
Format settings, Matrix : Default
Format settings, GOP : N=1
Duration : 33ms
Bit rate mode : Variable
Bit rate : 4 587 Kbps
Width : 720 pixels
Height : 480 pixels
Display aspect ratio : 16:9
Frame rate : 29.970 fps
Standard : NTSC
Color space : YUV
Chroma subsampling : 4:2:0
Bit depth : 8 bits
Scan type : Progressive
Scan order : Top Field First
Compression mode : Lossy
Bits/(Pixel*Frame) : 0.443
Stream size : 18.5 KiB (92%)
Menu
General
Complete name : D:\Мои релизы\Light It Up [DVD9]\VIDEO_TS\VTS_02_0.BUP
Format : DVD Video
Format profile : Program
File size : 72.0 KiB
Duration : 1h 39mn
Overall bit rate : 98 bps
Video
ID : 224 (0xE0)
Format : MPEG Video
Format version : Version 2
Duration : 1h 39mn
Bit rate mode : Variable
Width : 720 pixels
Height : 480 pixels
Display aspect ratio : 16:9
Frame rate : 29.970 fps
Standard : NTSC
Compression mode : Lossy
Audio #1
ID : 128 (0x80)
Format : AC-3
Format/Info : Audio Coding 3
Duration : 1h 39mn
Channel(s) : 2 channels
Sampling rate : 48.0 KHz
Compression mode : Lossy
Language : Russian
Audio #2
ID : 129 (0x81)
Format : AC-3
Format/Info : Audio Coding 3
Duration : 1h 39mn
Channel(s) : 6 channels
Sampling rate : 48.0 KHz
Compression mode : Lossy
Language : English
Text #1
ID : 32 (0x20)
Format : RLE
Format/Info : Run-length encoding
Bit depth : 2 bits
Language : English
Text #2
ID : 33 (0x21)
Format : RLE
Format/Info : Run-length encoding
Bit depth : 2 bits
Language : Spanish
Language, more info : Normal
Menu
Duration : 1h 39mn
00:00:00.000 : Chapter 1
00:01:59.800 : Chapter 2
00:07:08.633 : Chapter 3
00:14:28.965 : Chapter 4
00:17:13.298 : Chapter 5
00:19:58.131 : Chapter 6
00:24:41.297 : Chapter 7
00:28:28.297 : Chapter 8
00:31:24.297 : Chapter 9
00:36:26.830 : Chapter 10
00:40:35.963 : Chapter 11
00:43:02.296 : Chapter 12
00:45:36.229 : Chapter 13
00:48:51.229 : Chapter 14
01:05:44.395 : Chapter 15
01:10:18.595 : Chapter 16
01:16:35.894 : Chapter 17
01:21:46.393 : Chapter 18
01:29:21.593 : Chapter 19
01:32:35.926 : Chapter 20
01:39:22.592 : Chapter 21
List (Audio) : 0 / 1
List (Subtitles 4/3) : 0 / 0
List (Subtitles Wide) : 0 / 1
List (Subtitles Letterbox) : 0 / 1
List (Subtitles Pan&Scan) : 0 / 0
General
Complete name : D:\Мои релизы\Light It Up [DVD9]\VIDEO_TS\VTS_02_0.IFO
Format : DVD Video
Format profile : Program
File size : 72.0 KiB
Duration : 1h 39mn
Overall bit rate : 98 bps
Video
ID : 224 (0xE0)
Format : MPEG Video
Format version : Version 2
Duration : 1h 39mn
Bit rate mode : Variable
Width : 720 pixels
Height : 480 pixels
Display aspect ratio : 16:9
Frame rate : 29.970 fps
Standard : NTSC
Compression mode : Lossy
Audio #1
ID : 128 (0x80)
Format : AC-3
Format/Info : Audio Coding 3
Duration : 1h 39mn
Channel(s) : 2 channels
Sampling rate : 48.0 KHz
Compression mode : Lossy
Language : Russian
Audio #2
ID : 129 (0x81)
Format : AC-3
Format/Info : Audio Coding 3
Duration : 1h 39mn
Channel(s) : 6 channels
Sampling rate : 48.0 KHz
Compression mode : Lossy
Language : English
Text #1
ID : 32 (0x20)
Format : RLE
Format/Info : Run-length encoding
Bit depth : 2 bits
Language : English
Text #2
ID : 33 (0x21)
Format : RLE
Format/Info : Run-length encoding
Bit depth : 2 bits
Language : Spanish
Language, more info : Normal
Menu
Duration : 1h 39mn
00:00:00.000 : Chapter 1
00:01:59.800 : Chapter 2
00:07:08.633 : Chapter 3
00:14:28.965 : Chapter 4
00:17:13.298 : Chapter 5
00:19:58.131 : Chapter 6
00:24:41.297 : Chapter 7
00:28:28.297 : Chapter 8
00:31:24.297 : Chapter 9
00:36:26.830 : Chapter 10
00:40:35.963 : Chapter 11
00:43:02.296 : Chapter 12
00:45:36.229 : Chapter 13
00:48:51.229 : Chapter 14
01:05:44.395 : Chapter 15
01:10:18.595 : Chapter 16
01:16:35.894 : Chapter 17
01:21:46.393 : Chapter 18
01:29:21.593 : Chapter 19
01:32:35.926 : Chapter 20
01:39:22.592 : Chapter 21
List (Audio) : 0 / 1
List (Subtitles 4/3) : 0 / 0
List (Subtitles Wide) : 0 / 1
List (Subtitles Letterbox) : 0 / 1
List (Subtitles Pan&Scan) : 0 / 0
General
Complete name : D:\Мои релизы\Light It Up [DVD9]\VIDEO_TS\VTS_02_0.VOB
Format : MPEG-PS
File size : 67.5 MiB
Duration : 1mn 10s
Overall bit rate : 7 992 Kbps
Video
ID : 224 (0xE0)
Format : MPEG Video
Format version : Version 2
Format profile : Main@Main
Format settings, BVOP : Yes
Format settings, Matrix : Default
Duration : 33ms
Bit rate mode : Variable
Bit rate : 7 641 Kbps
Width : 720 pixels
Height : 480 pixels
Display aspect ratio : 16:9
Frame rate : 29.970 fps
Standard : Component
Color space : YUV
Chroma subsampling : 4:2:0
Bit depth : 8 bits
Compression mode : Lossy
Bits/(Pixel*Frame) : 0.738
Stream size : 30.8 KiB (0%)
Audio
ID : 128 (0x80)
Format : AC-3
Format/Info : Audio Coding 3
Format profile : Dolby Digital
Mode extension : CM (complete main)
Duration : 1mn 10s
Bit rate mode : Constant
Bit rate : 192 Kbps
Channel(s) : 2 channels
Channel positions : Front: L R
Sampling rate : 48.0 KHz
Bit depth : 16 bits
Compression mode : Lossy
Video delay : -306ms
Stream size : 1.62 MiB (2%)
Text #1
ID : 32 (0x20)
Format : RLE
Format/Info : Run-length encoding
Text #2
ID : 33 (0x21)
Format : RLE
Format/Info : Run-length encoding
Menu
General
Complete name : D:\Мои релизы\Light It Up [DVD9]\VIDEO_TS\VTS_02_1.VOB
Format : MPEG-PS
File size : 1 024 MiB
Duration : 22mn 8s
Overall bit rate : 6 465 Kbps
Video
ID : 224 (0xE0)
Format : MPEG Video
Format version : Version 2
Format profile : Main@Main
Format settings, BVOP : Yes
Format settings, Matrix : Default
Duration : 22mn 8s
Bit rate mode : Variable
Bit rate : 5 696 Kbps
Nominal bit rate : 9 800 Kbps
Width : 720 pixels
Height : 480 pixels
Display aspect ratio : 16:9
Frame rate : 23.976 fps
Standard : Component
Color space : YUV
Chroma subsampling : 4:2:0
Bit depth : 8 bits
Scan type : Progressive
Scan order : 2:3 Pulldown
Compression mode : Lossy
Bits/(Pixel*Frame) : 0.687
Stream size : 902 MiB (88%)
Audio #1
ID : 128 (0x80)
Format : AC-3
Format/Info : Audio Coding 3
Mode extension : CM (complete main)
Duration : 22mn 8s
Bit rate mode : Constant
Bit rate : 192 Kbps
Channel(s) : 2 channels
Channel positions : Front: L R
Sampling rate : 48.0 KHz
Bit depth : 16 bits
Compression mode : Lossy
Stream size : 30.4 MiB (3%)
Audio #2
ID : 129 (0x81)
Format : AC-3
Format/Info : Audio Coding 3
Mode extension : CM (complete main)
Duration : 22mn 8s
Bit rate mode : Constant
Bit rate : 448 Kbps
Channel(s) : 6 channels
Channel positions : Front: L C R, Side: L R, LFE
Sampling rate : 48.0 KHz
Bit depth : 16 bits
Compression mode : Lossy
Stream size : 70.9 MiB (7%)
Text #1
ID : 224 (0xE0)-DVD-2
Format : EIA-608
Muxing mode : DVD-Video
Muxing mode, more info : Muxed in Video #1
Stream size : 0.00 Byte (0%)
Text #2
ID : 32 (0x20)
Format : RLE
Format/Info : Run-length encoding
Menu
General
Complete name : D:\Мои релизы\Light It Up [DVD9]\VIDEO_TS\VTS_02_2.VOB
Format : MPEG-PS
File size : 1 024 MiB
Duration : 22mn 57s
Overall bit rate : 6 236 Kbps
Video
ID : 224 (0xE0)
Format : MPEG Video
Format version : Version 2
Format profile : Main@Main
Format settings, BVOP : Yes
Format settings, Matrix : Default
Format settings, GOP : M=3, N=12
Duration : 22mn 57s
Bit rate mode : Variable
Bit rate : 5 472 Kbps
Nominal bit rate : 9 800 Kbps
Width : 720 pixels
Height : 480 pixels
Display aspect ratio : 16:9
Frame rate : 23.976 fps
Standard : Component
Color space : YUV
Chroma subsampling : 4:2:0
Bit depth : 8 bits
Scan type : Progressive
Scan order : 2:3 Pulldown
Compression mode : Lossy
Bits/(Pixel*Frame) : 0.660
Stream size : 898 MiB (88%)
Audio #1
ID : 128 (0x80)
Format : AC-3
Format/Info : Audio Coding 3
Mode extension : CM (complete main)
Duration : 22mn 57s
Bit rate mode : Constant
Bit rate : 192 Kbps
Channel(s) : 2 channels
Channel positions : Front: L R
Sampling rate : 48.0 KHz
Bit depth : 16 bits
Compression mode : Lossy
Video delay : -647ms
Stream size : 31.5 MiB (3%)
Audio #2
ID : 129 (0x81)
Format : AC-3
Format/Info : Audio Coding 3
Mode extension : CM (complete main)
Duration : 22mn 57s
Bit rate mode : Constant
Bit rate : 448 Kbps
Channel(s) : 6 channels
Channel positions : Front: L C R, Side: L R, LFE
Sampling rate : 48.0 KHz
Bit depth : 16 bits
Compression mode : Lossy
Video delay : -711ms
Stream size : 73.6 MiB (7%)
Text #1
ID : 32 (0x20)
Format : RLE
Format/Info : Run-length encoding
Duration : 22mn 53s
Video delay : 1s 602ms
Text #2
ID : 224 (0xE0)-DVD-2
Format : EIA-608
Muxing mode : DVD-Video
Muxing mode, more info : Muxed in Video #1
Stream size : 0.00 Byte (0%)
Menu
General
Complete name : D:\Мои релизы\Light It Up [DVD9]\VIDEO_TS\VTS_02_3.VOB
Format : MPEG-PS
File size : 1 024 MiB
Duration : 22mn 11s
Overall bit rate : 6 452 Kbps
Video
ID : 224 (0xE0)
Format : MPEG Video
Format version : Version 2
Format profile : Main@Main
Format settings, BVOP : Yes
Format settings, Matrix : Default
Format settings, GOP : M=3, N=12
Duration : 22mn 11s
Bit rate mode : Variable
Bit rate : 5 683 Kbps
Nominal bit rate : 9 800 Kbps
Width : 720 pixels
Height : 480 pixels
Display aspect ratio : 16:9
Frame rate : 23.976 fps
Standard : Component
Color space : YUV
Chroma subsampling : 4:2:0
Bit depth : 8 bits
Scan type : Progressive
Scan order : 2:3 Pulldown
Compression mode : Lossy
Bits/(Pixel*Frame) : 0.686
Stream size : 902 MiB (88%)
Audio #1
ID : 128 (0x80)
Format : AC-3
Format/Info : Audio Coding 3
Mode extension : CM (complete main)
Duration : 22mn 11s
Bit rate mode : Constant
Bit rate : 192 Kbps
Channel(s) : 2 channels
Channel positions : Front: L R
Sampling rate : 48.0 KHz
Bit depth : 16 bits
Compression mode : Lossy
Video delay : -383ms
Stream size : 30.5 MiB (3%)
Audio #2
ID : 129 (0x81)
Format : AC-3
Format/Info : Audio Coding 3
Mode extension : CM (complete main)
Duration : 22mn 11s
Bit rate mode : Constant
Bit rate : 448 Kbps
Channel(s) : 6 channels
Channel positions : Front: L C R, Side: L R, LFE
Sampling rate : 48.0 KHz
Bit depth : 16 bits
Compression mode : Lossy
Video delay : -447ms
Stream size : 71.1 MiB (7%)
Text #1
ID : 32 (0x20)
Format : RLE
Format/Info : Run-length encoding
Duration : 22mn 10s
Text #2
ID : 224 (0xE0)-DVD-2
Format : EIA-608
Muxing mode : DVD-Video
Muxing mode, more info : Muxed in Video #1
Stream size : 0.00 Byte (0%)
Menu
General
Complete name : D:\Мои релизы\Light It Up [DVD9]\VIDEO_TS\VTS_02_4.VOB
Format : MPEG-PS
File size : 1 024 MiB
Duration : 19mn 38s
Overall bit rate : 7 289 Kbps
Video
ID : 224 (0xE0)
Format : MPEG Video
Format version : Version 2
Format profile : Main@Main
Format settings, BVOP : Yes
Format settings, Matrix : Default
Duration : 19mn 37s
Bit rate mode : Variable
Bit rate : 6 504 Kbps
Nominal bit rate : 9 800 Kbps
Width : 720 pixels
Height : 480 pixels
Display aspect ratio : 16:9
Frame rate : 23.976 fps
Standard : Component
Color space : YUV
Chroma subsampling : 4:2:0
Bit depth : 8 bits
Scan type : Progressive
Scan order : 2:3 Pulldown
Compression mode : Lossy
Bits/(Pixel*Frame) : 0.785
Stream size : 913 MiB (89%)
Audio #1
ID : 128 (0x80)
Format : AC-3
Format/Info : Audio Coding 3
Mode extension : CM (complete main)
Duration : 19mn 38s
Bit rate mode : Constant
Bit rate : 192 Kbps
Channel(s) : 2 channels
Channel positions : Front: L R
Sampling rate : 48.0 KHz
Bit depth : 16 bits
Compression mode : Lossy
Video delay : -621ms
Stream size : 27.0 MiB (3%)
Audio #2
ID : 129 (0x81)
Format : AC-3
Format/Info : Audio Coding 3
Mode extension : CM (complete main)
Duration : 19mn 38s
Bit rate mode : Constant
Bit rate : 448 Kbps
Channel(s) : 6 channels
Channel positions : Front: L C R, Side: L R, LFE
Sampling rate : 48.0 KHz
Bit depth : 16 bits
Compression mode : Lossy
Video delay : -653ms
Stream size : 62.9 MiB (6%)
Text #1
ID : 32 (0x20)
Format : RLE
Format/Info : Run-length encoding
Video delay : 935ms
Text #2
ID : 33 (0x21)
Format : RLE
Format/Info : Run-length encoding
Video delay : 968ms
Text #3
ID : 224 (0xE0)-DVD-2
Format : EIA-608
Muxing mode : DVD-Video
Muxing mode, more info : Muxed in Video #1
Stream size : 0.00 Byte (0%)
Menu
General
Complete name : D:\Мои релизы\Light It Up [DVD9]\VIDEO_TS\VTS_02_5.VOB
Format : MPEG-PS
File size : 602 MiB
Duration : 12mn 32s
Overall bit rate : 6 708 Kbps
Video
ID : 224 (0xE0)
Format : MPEG Video
Format version : Version 2
Format profile : Main@Main
Format settings, BVOP : Yes
Format settings, Matrix : Default
Duration : 12mn 32s
Bit rate mode : Variable
Bit rate : 5 935 Kbps
Nominal bit rate : 9 800 Kbps
Width : 720 pixels
Height : 480 pixels
Display aspect ratio : 16:9
Frame rate : 23.976 fps
Standard : Component
Color space : YUV
Chroma subsampling : 4:2:0
Bit depth : 8 bits
Scan type : Progressive
Scan order : 2:3 Pulldown
Compression mode : Lossy
Bits/(Pixel*Frame) : 0.716
Stream size : 532 MiB (88%)
Audio #1
ID : 128 (0x80)
Format : AC-3
Format/Info : Audio Coding 3
Mode extension : CM (complete main)
Duration : 12mn 32s
Bit rate mode : Constant
Bit rate : 192 Kbps
Channel(s) : 2 channels
Channel positions : Front: L R
Sampling rate : 48.0 KHz
Bit depth : 16 bits
Compression mode : Lossy
Video delay : -438ms
Stream size : 17.2 MiB (3%)
Audio #2
ID : 129 (0x81)
Format : AC-3
Format/Info : Audio Coding 3
Mode extension : CM (complete main)
Duration : 12mn 32s
Bit rate mode : Constant
Bit rate : 448 Kbps
Channel(s) : 6 channels
Channel positions : Front: L C R, Side: L R, LFE
Sampling rate : 48.0 KHz
Bit depth : 16 bits
Compression mode : Lossy
Video delay : -534ms
Stream size : 40.2 MiB (7%)
Text #1
ID : 32 (0x20)
Format : RLE
Format/Info : Run-length encoding
Video delay : 601ms
Text #2
ID : 33 (0x21)
Format : RLE
Format/Info : Run-length encoding
Video delay : 1s 735ms
Text #3
ID : 224 (0xE0)-DVD-2
Format : EIA-608
Muxing mode : DVD-Video
Muxing mode, more info : Muxed in Video #1
Stream size : 0.00 Byte (0%)
Menu
General
Complete name : D:\Мои релизы\Light It Up [DVD9]\VIDEO_TS\VTS_03_0.BUP
Format : DVD Video
Format profile : Program
File size : 28.0 KiB
Duration : 5mn 44s
Overall bit rate : 665 bps
Video
ID : 224 (0xE0)
Format : MPEG Video
Format version : Version 2
Duration : 5mn 44s
Bit rate mode : Variable
Width : 720 pixels
Height : 480 pixels
Display aspect ratio : 4:3
Frame rate : 29.970 fps
Standard : NTSC
Compression mode : Lossy
Audio
ID : 128 (0x80)
Format : AC-3
Format/Info : Audio Coding 3
Duration : 5mn 44s
Channel(s) : 2 channels
Sampling rate : 48.0 KHz
Compression mode : Lossy
Language : English
Menu #1
Duration : 2mn 31s
00:00:00.000 : Chapter 1
00:02:30.833 : Chapter 2
List (Audio) : 0
Menu #2
Duration : 5mn 44s
00:00:00.000 : Chapter 1
00:05:44.000 : Chapter 2
List (Audio) : 0
Menu #3
Duration : 3mn 49s
00:00:00.000 : Chapter 1
00:03:49.400 : Chapter 2
List (Audio) : 0
Menu #4
Duration : 4mn 11s
00:00:00.000 : Chapter 1
00:04:10.933 : Chapter 2
List (Audio) : 0
Menu #5
Duration : 31s 500ms
00:00:00.000 : Chapter 1
00:00:31.000 : Chapter 2
List (Audio) : 0
Menu #6
Duration : 500ms
00:00:00.000 : Chapter 1
List (Audio) : 0
Menu #7
General
Complete name : D:\Мои релизы\Light It Up [DVD9]\VIDEO_TS\VTS_03_0.IFO
Format : DVD Video
Format profile : Program
File size : 28.0 KiB
Duration : 5mn 44s
Overall bit rate : 665 bps
Video
ID : 224 (0xE0)
Format : MPEG Video
Format version : Version 2
Duration : 5mn 44s
Bit rate mode : Variable
Width : 720 pixels
Height : 480 pixels
Display aspect ratio : 4:3
Frame rate : 29.970 fps
Standard : NTSC
Compression mode : Lossy
Audio
ID : 128 (0x80)
Format : AC-3
Format/Info : Audio Coding 3
Duration : 5mn 44s
Channel(s) : 2 channels
Sampling rate : 48.0 KHz
Compression mode : Lossy
Language : English
Menu #1
Duration : 2mn 31s
00:00:00.000 : Chapter 1
00:02:30.833 : Chapter 2
List (Audio) : 0
Menu #2
Duration : 5mn 44s
00:00:00.000 : Chapter 1
00:05:44.000 : Chapter 2
List (Audio) : 0
Menu #3
Duration : 3mn 49s
00:00:00.000 : Chapter 1
00:03:49.400 : Chapter 2
List (Audio) : 0
Menu #4
Duration : 4mn 11s
00:00:00.000 : Chapter 1
00:04:10.933 : Chapter 2
List (Audio) : 0
Menu #5
Duration : 31s 500ms
00:00:00.000 : Chapter 1
00:00:31.000 : Chapter 2
List (Audio) : 0
Menu #6
Duration : 500ms
00:00:00.000 : Chapter 1
List (Audio) : 0
Menu #7
General
Complete name : D:\Мои релизы\Light It Up [DVD9]\VIDEO_TS\VTS_03_0.VOB
Format : MPEG-PS
File size : 840 KiB
Duration : 1s 535ms
Overall bit rate : 4 483 Kbps
Video
ID : 224 (0xE0)
Format : MPEG Video
Format version : Version 2
Format profile : Main@Main
Format settings, BVOP : No
Format settings, Matrix : Default
Format settings, GOP : N=1
Duration : 1s 535ms
Bit rate mode : Variable
Bit rate : 4 587 Kbps
Width : 720 pixels
Height : 480 pixels
Display aspect ratio : 4:3
Frame rate : 29.970 fps
Standard : NTSC
Color space : YUV
Chroma subsampling : 4:2:0
Bit depth : 8 bits
Scan type : Progressive
Scan order : Top Field First
Compression mode : Lossy
Bits/(Pixel*Frame) : 0.443
Stream size : 860 KiB
Menu
General
Complete name : D:\Мои релизы\Light It Up [DVD9]\VIDEO_TS\VTS_03_1.VOB
Format : MPEG-PS
File size : 1 024 MiB
Duration : 3mn 49s
Overall bit rate : 37.3 Mbps
Video
ID : 224 (0xE0)
Format : MPEG Video
Format version : Version 2
Format profile : Main@Main
Format settings, BVOP : Yes
Format settings, Matrix : Default
Format settings, GOP : M=3, N=12
Duration : 3mn 49s
Bit rate mode : Variable
Bit rate : 36.4 Mbps
Nominal bit rate : 9 800 Kbps
Width : 720 pixels
Height : 480 pixels
Display aspect ratio : 4:3
Frame rate : 23.976 fps
Standard : Component
Color space : YUV
Chroma subsampling : 4:2:0
Bit depth : 8 bits
Scan type : Progressive
Scan order : 2:3 Pulldown
Compression mode : Lossy
Bits/(Pixel*Frame) : 4.394
Stream size : 998 MiB (97%)
Audio
ID : 128 (0x80)
Format : AC-3
Format/Info : Audio Coding 3
Mode extension : CM (complete main)
Duration : 3mn 49s
Bit rate mode : Constant
Bit rate : 192 Kbps
Channel(s) : 2 channels
Channel positions : Front: L R
Sampling rate : 48.0 KHz
Bit depth : 16 bits
Compression mode : Lossy
Video delay : 6ms
Stream size : 5.26 MiB (1%)
Menu
General
Complete name : D:\Мои релизы\Light It Up [DVD9]\VIDEO_TS\VTS_03_2.VOB
Format : MPEG-PS
File size : 53.6 MiB
Overall bit rate : 0
Video
ID : 224 (0xE0)
Format : MPEG Video
Format version : Version 2
Format profile : Main@Main
Format settings, BVOP : Yes
Format settings, Matrix : Default
Bit rate mode : Variable
Nominal bit rate : 9 800 Kbps
Width : 720 pixels
Height : 480 pixels
Display aspect ratio : 4:3
Frame rate : 29.970 fps
Standard : Component
Color space : YUV
Chroma subsampling : 4:2:0
Bit depth : 8 bits
Scan type : Interlaced
Scan order : Top Field First
Compression mode : Lossy
Bits/(Pixel*Frame) : 0.946
Audio
ID : 128 (0x80)
Format : AC-3
Format/Info : Audio Coding 3
Mode extension : CM (complete main)
Duration : -3mn 18s
Bit rate mode : Constant
Bit rate : 192 Kbps
Channel(s) : 2 channels
Channel positions : Front: L R
Sampling rate : 48.0 KHz
Bit depth : 16 bits
Compression mode : Lossy
Video delay : -358ms
Stream size : 2.05 ?iB
Menu
Скриншоты менюСкриншотыСкриншоты доп. материалов

_________________
Показать сообщения:    

Текущее время: Сегодня 16:06

Часовой пояс: GMT



Вы не можете начинать темы
Вы не можете отвечать на сообщения
Вы не можете редактировать свои сообщения
Вы не можете удалять свои сообщения
Вы не можете голосовать в опросах
Вы не можете прикреплять файлы к сообщениям
Вы не можете скачивать файлы