Важное объявление!
У Нас Все раздачи мультитрекерные, при нуле пиров в релизах, можете смело вставать на закачку!
 
Автор Сообщение

HUNTER

Стаж:
4 года 4 месяца
Сообщений:
56839

Репутация: 101

[+] [-]
Вне форума [Профиль] [ЛС]

Заговорщица / The Conspirator
-Страна: США
Жанр: драма, криминал, история
Год выпуска: 2010
Продолжительность: 02:02:16
Перевод: Профессиональный (многоголосый закадровый) лицензия
Cубтитры: русские (full), английские (full+full SDH)
Навигация по главам: присутствует (подписанная eng) - (16 глав)-Режиссер: Роберт Редфорд / Robert Redford
В ролях: Джеймс МакЭвой, Робин Райт, Кевин Клайн, Эван Рэйчел Вуд, Том Уилкинсон, Джастин Лонг, Дэнни Хьюстон, Джеймс Бэдж Дэйл, Колм Мини, Алексис Бледел
Описание: Мэри Сарретт — одинокая женщина, обвиненная в пособничестве в организации заговора с целью убийства президента Линкольна. И поскольку вся нация повернулась против нее, Мэри вынуждена положиться на неохотно защищающего ее адвоката, чтобы докопаться до правды и доказать свою невиновность.-
Сэмпл-Качество: BDRip
Контейнер: MKV
Видеопоток: 1920x800p, 23.976fps, x264 ~10.2 Mbps
Аудиопоток №1 (RUS): AC3 5.1, 48 kHz, 384 kbps | Профессиональный (многоголосый закадровый)
Аудиопоток №2 (RUS): DTS 5.1, 48 kHz, 1536 kbps | Авторский (закадровый одноголосый, Ю.Сербин)
Аудиопоток №3 (ENG): DTS 5.1, 48 kHz, 1536 kbps | Original
Аудиопоток №4 (ENG): AC3 2.0, 48 kHz, 192 kbps | Commentary with Writer James Solomon

MediaInfo

General
Unique ID : 178578233980493309876102358539323718251 (0x8658EAB4F84E5B8EB1C7D3D2866E3A6B)
Complete name : The.Conspirator.2010.x264.BDRip.1080p.mkv
Format : Matroska
Format version : Version 4 / Version 2
File size : 11.8 GiB
Duration : 2h 2mn
Overall bit rate : 13.8 Mbps
Movie name : Заговорщица \ The Conspirator [2010, BDRip/1080p]
Encoded date : UTC 2014-03-25 08:54:11
Writing application : mkvmerge v6.8.0 ('Theme for Great Cities') 32bit built on Mar 2 2014 21:27:07
Writing library : libebml v1.3.0 + libmatroska v1.4.1
Attachment : Yes
Video
ID : 1
Format : AVC
Format/Info : Advanced Video Codec
Format profile : High@L4.1
Format settings, CABAC : Yes
Format settings, ReFrames : 5 frames
Codec ID : V_MPEG4/ISO/AVC
Duration : 2h 2mn
Bit rate : 10.2 Mbps
Width : 1 920 pixels
Height : 800 pixels
Display aspect ratio : 2.40:1
Frame rate mode : Constant
Frame rate : 23.976 fps
Color space : YUV
Chroma subsampling : 4:2:0
Bit depth : 8 bits
Scan type : Progressive
Bits/(Pixel*Frame) : 0.277
Stream size : 8.48 GiB (72%)
Title : The.Conspirator.2010
Writing library : x264 core 116 r2044 392e762
Encoding settings : cabac=1 / ref=5 / deblock=1:-3:-3 / analyse=0x3:0x113 / me=umh / subme=10 / psy=1 / psy_rd=1.05:0.10 / mixed_ref=1 / me_range=48 / chroma_me=1 / trellis=2 / 8x8dct=1 / cqm=2 / deadzone=21,11 / fast_pskip=0 / chroma_qp_offset=-2 / threads=8 / sliced_threads=0 / nr=0 / decimate=1 / interlaced=0 / bluray_compat=0 / constrained_intra=0 / bframes=6 / b_pyramid=2 / b_adapt=2 / b_bias=0 / direct=3 / weightb=1 / open_gop=0 / weightp=2 / keyint=250 / keyint_min=23 / scenecut=40 / intra_refresh=0 / rc_lookahead=50 / rc=2pass / mbtree=1 / bitrate=10200 / ratetol=1.0 / qcomp=0.60 / qpmin=1 / qpmax=63 / qpstep=4 / cplxblur=20.0 / qblur=0.5 / vbv_maxrate=40000 / vbv_bufsize=40000 / nal_hrd=none / ip_ratio=1.40 / aq=2:0.80
Language : English
Default : No
Forced : No
Audio #1
ID : 2
Format : AC-3
Format/Info : Audio Coding 3
Mode extension : CM (complete main)
Format settings, Endianness : Big
Codec ID : A_AC3
Duration : 2h 2mn
Bit rate mode : Constant
Bit rate : 384 Kbps
Channel(s) : 6 channels
Channel positions : Front: L C R, Side: L R, LFE
Sampling rate : 48.0 KHz
Bit depth : 16 bits
Compression mode : Lossy
Stream size : 336 MiB (3%)
Language : Russian
Default : Yes
Forced : No
Audio #2
ID : 3
Format : DTS
Format/Info : Digital Theater Systems
Mode : 16
Format settings, Endianness : Big
Codec ID : A_DTS
Duration : 2h 2mn
Bit rate mode : Constant
Bit rate : 1 510 Kbps
Channel(s) : 6 channels
Channel positions : Front: L C R, Side: L R, LFE
Sampling rate : 48.0 KHz
Bit depth : 16 bits
Compression mode : Lossy
Stream size : 1.29 GiB (11%)
Title : AVO (Ю.Сербин)
Language : Russian
Default : No
Forced : No
Audio #3
ID : 4
Format : DTS
Format/Info : Digital Theater Systems
Mode : 16
Format settings, Endianness : Big
Codec ID : A_DTS
Duration : 2h 2mn
Bit rate mode : Constant
Bit rate : 1 509 Kbps
Channel(s) : 6 channels
Channel positions : Front: L C R, Side: L R, LFE
Sampling rate : 48.0 KHz
Bit depth : 24 bits
Compression mode : Lossy
Stream size : 1.29 GiB (11%)
Title : DTS-CORE 1536K
Language : English
Default : No
Forced : No
Audio #4
ID : 5
Format : AC-3
Format/Info : Audio Coding 3
Mode extension : CM (complete main)
Format settings, Endianness : Big
Codec ID : A_AC3
Duration : 2h 2mn
Bit rate mode : Constant
Bit rate : 192 Kbps
Channel(s) : 2 channels
Channel positions : Front: L R
Sampling rate : 48.0 KHz
Bit depth : 16 bits
Compression mode : Lossy
Stream size : 168 MiB (1%)
Title : Commentary with Writer James Solomon
Language : English
Default : No
Forced : No
Text #1
ID : 6
Format : UTF-8
Codec ID : S_TEXT/UTF8
Codec ID/Info : UTF-8 Plain Text
Title : full
Language : Russian
Default : No
Forced : No
Text #2
ID : 7
Format : UTF-8
Codec ID : S_TEXT/UTF8
Codec ID/Info : UTF-8 Plain Text
Title : full
Language : English
Default : No
Forced : No
Text #3
ID : 8
Format : UTF-8
Codec ID : S_TEXT/UTF8
Codec ID/Info : UTF-8 Plain Text
Title : full SDH
Language : English
Default : No
Forced : No
Menu
00:00:00.000 : en:The Conspirator
00:07:27.072 : en:Help, Somebody Help!
00:16:36.787 : en:Defend One of the Eight
00:24:01.732 : en:Privileged
00:31:07.449 : en:Kill Any on Our Own Side?
00:38:44.948 : en:Suspicious
00:47:50.993 : en:Lincoln's Changed His Plans
00:54:34.605 : en:Is She Expecting You?
01:01:54.294 : en:Feel That Sun
01:10:29.308 : en:Outrun Creation
01:17:39.488 : en:But You Can Ignore Me?
01:27:12.477 : en:Infatuated
01:33:57.966 : en:All Those in Favor
01:41:35.715 : en:It's Not Justice, It's Revenge
01:48:22.871 : en:May Almighty God Bless You
01:53:45.694 : en:End Credits

Скриншоты


_________________
Показать сообщения:    

Текущее время: Сегодня 02:52

Часовой пояс: GMT



Вы не можете начинать темы
Вы не можете отвечать на сообщения
Вы не можете редактировать свои сообщения
Вы не можете удалять свои сообщения
Вы не можете голосовать в опросах
Вы не можете прикреплять файлы к сообщениям
Вы не можете скачивать файлы