Важное объявление!
У Нас Все раздачи мультитрекерные, при нуле пиров в релизах, можете смело вставать на закачку!
 
Автор Сообщение

HUNTER

Стаж:
4 года 4 месяца
Сообщений:
56734

Репутация: 101

[+] [-]
Вне форума [Профиль] [ЛС]

Загадка старого кладбища
Страна: Россия
Жанр: мистика, ужасы
Год выпуска: 2008
Продолжительность: 02:05:57
Перевод: Не требуется
Cубтитры: нет
Оригинальная аудиодорожка: русский
Режиссер: Станислав Грачёв
В ролях: Татьяна Вихлянцева, Людмила Андреева, Юрий Беркун, Дмитрий Гусев,Валерий Долженков, Вадим Красилёв, Родион Мартенс, Галина Меркулова
Описание: Библиотекарь Валентина Петухова едет в деревню Лиходеевку собирать грибы. Одновременно туда с целью изучения паранормальных явлений приезжают профессор Струмс с сотрудником городского музея Дмитрием Воробьёвым. Профессор узнал, что похороненные на деревенском кладбище не совсем мертвы и своими действиями он привлекает их к своему лагерю. Валентина тоже оказывается в этом месте и видит там странные обряды. Утром девушка обнаруживает, что на одной из могил написано её имя, и указана дата смерти. Судя по ней, ей осталось жить 13 дней.Валентина и Дмитрий начинают проводить расследование и выясняют, что деревня эта была основана в XVII веке колдунами, способными оживлять умерших. И очень вероятно, что у чародеев на девушку особые планы…
Изначально фильм планировался как сериал из 4-8 серий, исключительно в телевизионном формате. Съемки проходили в Москве и Московской области в 2002-2003 годах. Съемочный период длился около 22 смен и был разделен на 3 части : лето, осень-зима 2002 года, весна 2003 года. Однако, после завершения съемок и просмотра первой версии монтажа фильма (2004 год), продолжительностью около 240 минут, ход событий в фильме оказался не таким динамичным, что при небольшом бюджете было особенно заметно. С 2003 по 2006 годы работы по монтажу были приостановлены.В 2007 году фильм был перемонтирован и полностью переозвучен. Продолжительность фильма сократилась до 125 мин.В 2008 году сразу три дистрибьюторские компании предложили выпустить его на DVD. 11 сентября 2008 года состоялся выход фильма в компании «Русское счастье Интертеймент».Через 12 часов фильм появился в сети на более, чем 180 торрентах и сайтах. К началу 2011 года количество скачиваний и просмотров превысило 150 000.Съемки фильма проходили с июня 2002 по март 2003 года. В этот период прошло около 21 съемочного дня. На основной съемочный период было истрачено около 6000 долл. Все актеры участвовавшие в фильме — профессиональные, за исключением Татьяны Вихлянцевой (Валентина Петухова). Странные события произошли во время съемки на натуре с использованием реквизита — кладбищенских надгробий и крестов. Изготовленные художниками-декораторами Екатериной Неллиной и Михаилом Сазоновым декорации кладбища предполагалось снимать 2 дневные и 1 ночную смену подряд. После завершения ночной смены, группа разъехалась, оставив дежурную охрану. На утро следующего дня, на площадке не были обнаружены ни охранники, ни реквизит. Позднее, часть реквизита были найдены в пруду и лесу, на воде плавал разломанный могильный крест. Съемки оказались под угрозой. Само событие стало сюжетом для статьи в газете на тему «Полтергейст», хотя изложенные в статье факты оказались немного искаженны. Вспомнили одно: перед отъездом группа оставила охране две бутылки водки, возможно, это и стало причиной странных событий. По одноимённой повести Алексея Атеева.
Доп. информация: Издатель STG SINEMA
Разделение по главам отсутствует.
Сэмпл: http://sendfile.su/1121343
Тип релиза: DVD5
Контейнер: DVD-Video
Видео: PAL 16:9 (720x576) VBR Auto Pan&Scan
Аудио: Russian (Dolby AC3, 192 Кбит/сек, 2 ch)

DVDInfo

Size: 4.30 Gb ( 4 504 702 KBytes ) - DVD-5
Enabled regions: 1, 2, 3, 4, 5, 6, 7, 8
VTS_01 :
Play Length: 02:05:57
Video: PAL 16:9 (720x576) VBR, Auto Pan&Scan
Audio:
Russian (Dolby AC3, 2 ch)
VTS_02 :
Play Length: 00:01:04
Video: PAL 16:9 (720x576) VBR, Auto Pan&Scan
Audio:
Russian (Dolby AC3, 2 ch)
VTS_03 :
Play Length: 00:06:22
Video: PAL 16:9 (720x576) VBR, Auto Pan&Scan
Audio:
Russian (Dolby AC3, 2 ch)
VTS_04 :
Play Length: 00:00:12
Video: PAL 16:9 (720x576) VBR, Auto Pan&Scan
Audio:
Russian (Dolby AC3, 2 ch)
VTS_05 :
Play Length: 00:00:12
Video: PAL 16:9 (720x576) VBR, Auto Pan&Scan
Audio:
Russian (Dolby AC3, 2 ch)
VTS_06 :
Play Length: 00:00:05
Video: PAL 16:9 (720x576) VBR, Auto Pan&Scan
Audio:
Russian (MPEG1, 2 ch)
VTS_07 :
Play Length: 00:00:05
Video: PAL 16:9 (720x576) VBR, Auto Pan&Scan
Audio:
Russian (MPEG1, 2 ch)
VTS_08 :
Play Length: 00:00:12
Video: PAL 16:9 (720x576) VBR, Auto Pan&Scan
Audio:
Russian (Dolby AC3, 2 ch)
Menu Video:
PAL 4:3 (720x576) VBR
Menu Subtitles:
Not specified
Menu English Language Unit :
Root Menu

MediaInfo

Общее
Полное имя : H:\Zagadka starogo kladbishcha_2008\VIDEO_TS\VTS_01_1.VOB
Формат : MPEG-PS
Размер файла : 1024 Мбайт
Продолжительность : 32 м.
Режим общего битрейта : Переменный
Общий поток : 4432 Кбит/сек
Видео
Идентификатор : 224 (0xE0)
Формат : MPEG Video
Версия формата : Version 2
Профиль формата : Main@Main
Параметр BVOP формата : Да
Параметр матрицы формата : По умолчанию
Продолжительность : 32 м.
Вид битрейта : Переменный
Битрейт : 4152 Кбит/сек
Максимальный битрейт : 8000 Кбит/сек
Ширина : 720 пикселей
Высота : 576 пикселей
Соотношение сторон : 16:9
Частота кадров : 25,000 кадров/сек
Стандарт вещания : PAL
Цветовое пространство : YUV
Субдискретизация насыщенности : 4:2:0
Битовая глубина : 8 бит
Тип развёртки : Прогрессивная
Метод сжатия : С потерями
Бит/(Пиксели*Кадры) : 0.400
Размер потока : 959 Мбайт (94%)
Аудио
Идентификатор : 189 (0xBD)-128 (0x80)
Формат : AC-3
Формат/Информация : Audio Coding 3
Расширение режима : CM (complete main)
Параметр Endianness формата : Big
Режим смешивания : DVD-Video
Продолжительность : 32 м.
Вид битрейта : Постоянный
Битрейт : 192 Кбит/сек
Каналы : 2 канала
Расположение каналов : Front: L R
Частота : 48,0 КГц
Битовая глубина : 16 бит
Метод сжатия : С потерями
Задержка видео : -80 мс.
Размер потока : 44,4 Мбайт (4%)
Меню

Скриншоты меню


_________________
Показать сообщения:    

Текущее время: Сегодня 17:04

Часовой пояс: GMT



Вы не можете начинать темы
Вы не можете отвечать на сообщения
Вы не можете редактировать свои сообщения
Вы не можете удалять свои сообщения
Вы не можете голосовать в опросах
Вы не можете прикреплять файлы к сообщениям
Вы не можете скачивать файлы