Важное объявление!
У Нас Все раздачи мультитрекерные, при нуле пиров в релизах, можете смело вставать на закачку!
 
Автор Сообщение

HUNTER

Стаж:
4 года 4 месяца
Сообщений:
56719

Репутация: 101

[+] [-]
Вне форума [Профиль] [ЛС]

-
Год выпуска: 2014
Страна: Япония
Жанр: драма
Продолжительность: ТВ-сериал, 12 эп. по 24 мин.
Выпуск: c 04.04.2014 по 20.06.2014-Перевод:

  • русские субтитры от GMC
    переводчик: Brishka, редакторы: Fatotaku, Pat-Rica, St_Ranger, оформление: Surokune
    -Режиссер: Кусакава Кэйдзё
    Студия: Studio Barcelona-Описание:
    Как известно, мораль нужна лишь для послушного плебса, у хозяев жизни иные законы и развлечения. В престижной девичьей академии Мёдзё создается новый 10-й класс, «Черная группа», будущая арена жестокой игры. Официально туда собирают юных знаменитостей, что почти правда: они – лучшие убийцы в своем поколении. При этом кто-то вышел из солидной тайной школы, другие продолжают семейный бизнес, есть и талантливые любительницы, которым тоже дали шанс. Цель киллерам известна – их одноклассница Хару Итиносэ, улыбчивая девушка с темным прошлым. Главный приз один, зато какой – победительница получит все, что пожелает!
    Еще Конфуций говорил: «действие без должного церемониала есть хамство», поэтому игра 12 убийц будет проходить по строгим правилам. Во-первых, каждая имеет лишь одну попытку. Во-вторых, объект надо предупредить лично, после чего на «работу» дается 48 часов, не успела – значит опоздала. В-третьих, вовлекать можно только «своих»: кто засветится перед посторонними - выбывает сразу. Главная героиня, отлично подготовленная, но еще не убивавшая Токаку Адзума посмотрела на весь этот цирк и решила сыграть парадоксально – на стороне жертвы, кстати, соседки по комнате. Не зря хитроумный сэнсэй Кайба мучает свою ученицу буддистскими коанами – Токаку начала понимать, что, разгадав загадку Хару Итиносэ, получит куда больше, чем исполняя заказы чужого дяди!
    © Hollow, World Art
    Имя Токаку значит «обычная, обыкновенная».-Информационные ссылки: AniDB || World Art || MAL-Качество: BDRip
    Энкод: Winter - RG Pantheon
    Тип видео: без хардсаба, без линковки
    Формат: mkv
    Видео: x264 (Hi10p), 1280x720, ~2700 Kbps, 23.976 fps
    Аудио JAP: Vorbis, 48000Hz, ~256 Kbps, 2ch-

    Список эпизодов
    01. The World Is Full of ___
    02. What Dwells in Your Heart?
    СкриншотыОтличия от других раздачПодробные тех. данные
    Общее
    Уникальный идентификатор : 199699605464348841654552110988633633273 (0x963CBEB89F46070A806199C57330F1F9)
    Полное имя : Z:\Anime\720p\Akuma no Riddle [BD] [720p]\[Winter] Akuma no Riddle 02 [BDrip 1280x720 x264 Vorbis].mkv
    Формат : Matroska
    Версия формата : Version 2
    Размер файла : 525 Мбайт
    Продолжительность : 23 м.
    Режим общего битрейта : Переменный
    Общий поток : 3097 Кбит/сек
    Дата кодирования : UTC 2014-07-04 17:10:56
    Программа кодирования : mkvmerge v2.9.8 ('C'est le bon') built on Aug 13 2009 12:49:06
    Библиотека кодирования : libebml v0.7.7 + libmatroska v0.8.1
    Видео
    Идентификатор : 1
    Формат : AVC
    Формат/Информация : Advanced Video Codec
    Профиль формата : High 10@L4.1
    Параметр CABAC формата : Да
    Параметр ReFrames формата : 9 кадров
    Идентификатор кодека : V_MPEG4/ISO/AVC
    Продолжительность : 23 м.
    Битрейт : 2780 Кбит/сек
    Ширина : 1280 пикселей
    Высота : 720 пикселей
    Соотношение сторон : 16:9
    Режим частоты кадров : Постоянный
    Частота кадров : 23,976 кадра/сек
    Цветовое пространство : YUV
    Субдискретизация насыщенности : 4:2:0
    Битовая глубина : 10 бит
    Тип развёртки : Прогрессивная
    Бит/(Пиксели*Кадры) : 0.126
    Размер потока : 471 Мбайт (90%)
    Библиотека кодирования : x264 core 132 r2309 3b1f1f7
    Настройки программы : cabac=1 / ref=9 / deblock=1:-2:-2 / analyse=0x3:0x133 / me=umh / subme=9 / psy=1 / psy_rd=0.90:0.00 / mixed_ref=1 / me_range=24 / chroma_me=1 / trellis=2 / 8x8dct=1 / cqm=0 / deadzone=21,11 / fast_pskip=1 / chroma_qp_offset=-2 / threads=12 / lookahead_threads=2 / sliced_threads=0 / nr=0 / decimate=0 / interlaced=0 / bluray_compat=0 / constrained_intra=0 / bframes=8 / b_pyramid=2 / b_adapt=2 / b_bias=0 / direct=1 / weightb=1 / open_gop=0 / weightp=2 / keyint=250 / keyint_min=23 / scenecut=40 / intra_refresh=0 / rc=crf / mbtree=0 / crf=15.5 / qcomp=0.70 / qpmin=9 / qpmax=40 / qpstep=4 / ip_ratio=1.40 / pb_ratio=1.30 / aq=1:0.90 / zones=1535,3679,b=1.3
    Default : Нет
    Forced : Нет
    Аудио
    Идентификатор : 2
    Формат : Vorbis
    Параметр Floor формата : 1
    Идентификатор кодека : A_VORBIS
    Продолжительность : 23 м.
    Вид битрейта : Переменный
    Битрейт : 256 Кбит/сек
    Каналы : 2 канала
    Частота : 48,0 КГц
    Метод сжатия : С потерями
    Размер потока : 43,4 Мбайт (8%)
    Библиотека кодирования : libVorbis (Schaufenugget) (20101101 (Schaufenugget))
    Язык : Japanese
    Default : Да
    Forced : Нет
    - -Информация о релизе
  • Выбор видео, перевода, озвучки, а также типа сборки материала осуществляется релизером и не подлежит обсуждению. Если вы считаете, что раздаваемый материал противоречит правилам раздела "Аниме" rutracker.org, сообщите об этом одному из модераторов раздела.
  • В случае появления нового материала или же лучшего по качеству материала релизер оставляет за собой право обновить раздачу. В этом случае вам необходимо ознакомиться с изменениями (добавлениями) и перекачать торрент.
  • Данный релиз предназначен для просмотра на ПК. Воспроизведение на иных проигрывателях не гарантируется. Для просмотра рекомендуется Media Player Classic с установленным пакетом кодеков K-Lite.
  • Данный релиз содержит 10-битное видео (Hi10p). Для корректного воспроизведения обязательно используйте кодеки, поддерживающие 10-битное видео.
    Обсудить частные случаи проблем с воспроизведением и получить дополнительную информацию можно здесь.

  • Данный релиз предназначен для просмотра с внешними субтитрами и внешними звуковыми дорожками.
  • Для просмотра с внешней звуковой дорожкой нужно:
    перекинуть файлы .mka из папки "RUS Sound [<автор(ы) озвучки>]" в одну папку с видео и переключить звуковую дорожку в плеере при просмотре. Как это сделать в разных плеерах подробно описано здесь.

  • Для просмотра с субтитрами нужно:
    перекинуть файлы .ass из папки "RUS Subtitles [<автор(ы) перевода>]" в одну папку с видео - плеер подгрузит их автоматически при открытии видео.

  • Если у вас возникли проблемы с просмотром, не связанные с описанным выше, сообщите о них автору раздачи посредством сообщения в теме или ЛС Aglenn.

  • _________________
    Показать сообщения:    

    Текущее время: Сегодня 19:49

    Часовой пояс: GMT



    Вы не можете начинать темы
    Вы не можете отвечать на сообщения
    Вы не можете редактировать свои сообщения
    Вы не можете удалять свои сообщения
    Вы не можете голосовать в опросах
    Вы не можете прикреплять файлы к сообщениям
    Вы не можете скачивать файлы