Важное объявление!
У Нас Все раздачи мультитрекерные, при нуле пиров в релизах, можете смело вставать на закачку!
 
Автор Сообщение

HUNTER

Стаж:
4 года 4 месяца
Сообщений:
56798

Репутация: 101

[+] [-]
Вне форума [Профиль] [ЛС]

За пределами Млечного пути / Horizon. Beyond the Milky Way
Дата/Год выпуска: 1980
Страна: Великобритания
Жанр: научно-популярный, астрономия
Продолжительность: 00:55:51
Перевод: Субтитры
Русские субтитры: есть
перевод с английского: Aelita XXII (Space Age) (
Формат субтитров: softsub (SRT)
Оригинальная аудиодорожка: английский
Описание: Эта программа охватывает основы Внегалактической астрономии, начиная с крупнейшего викторианского телескопа, построенного лордом Россом, а затем сравнивает с более современной обсерваторией - Хабблом. Исследовано изменение знаний о крупномасштабной структуре Вселенной и различных типах галактик.
качество: VHSRip
формат: AVI
Видео: Xvid 640x480 29.97fps 1440 Kbps
Аудио: MP3 44100Hz mono 64kbps

MediaInfo

GeneralComplete name : C:\Documents and Settings\Администратор\Мои документы\Horizon\Beyond the Milky Way\Horizon. Beyond the Milky Way.aviFormat : AVIFormat/Info : Audio Video InterleaveFile size : 606 MiBDuration : 55mn 51sOverall bit rate : 1 516 KbpsWriting application : VirtualDubMod 1.5.10.2 (build 2540/release)Writing library : VirtualDubMod build 2540/release
VideoID : 0Format : MPEG-4 VisualFormat profile : Simple@L3Format settings, BVOP : NoFormat settings, QPel : NoFormat settings, GMC : No warppointsFormat settings, Matrix : Default (H.263)Codec ID : XVIDCodec ID/Hint : XviDDuration : 55mn 51sBit rate : 1 440 KbpsWidth : 640 pixelsHeight : 480 pixelsDisplay aspect ratio : 4:3Frame rate : 29.970 fpsColor space : YUVChroma subsampling : 4:2:0Bit depth : 8 bitsScan type : ProgressiveCompression mode : LossyBits/(Pixel*Frame) : 0.156Stream size : 575 MiB (95%)
AudioID : 1Format : MPEG AudioFormat version : Version 1Format profile : Layer 3Codec ID : 55Codec ID/Hint : MP3Duration : 55mn 51sBit rate mode : ConstantBit rate : 64.0 KbpsChannel(s) : 1 channelSampling rate : 44.1 KHzCompression mode : LossyStream size : 25.6 MiB (4%)Alignment : Split accross interleavesInterleave, duration : 33 ms (1.00 video frame)Interleave, preload duration : 500 ms

Скриншоты


_________________
Показать сообщения:    

Текущее время: Сегодня 00:17

Часовой пояс: GMT



Вы не можете начинать темы
Вы не можете отвечать на сообщения
Вы не можете редактировать свои сообщения
Вы не можете удалять свои сообщения
Вы не можете голосовать в опросах
Вы не можете прикреплять файлы к сообщениям
Вы не можете скачивать файлы