Важное объявление!
У Нас Все раздачи мультитрекерные, при нуле пиров в релизах, можете смело вставать на закачку!
 
Автор Сообщение

adeei

[Профиль] [ЛС]

За конец ответишь / Bad Johnson
--Год выпуска: 2014
Страна: США
Жанр: фэнтези, комедия
Продолжительность: 01:27:36
Перевод: Профессиональный (полное дублирование)[Чистый звук]-Режиссер: Хак Ботко-В ролях: Кэм Жиганде, Ник Тун, Джейми Чунг, Кэтерин Каннингэм, Кэйси Таттон, Холли Хоук, Джордж Лако, Джессика Джой, Джеймс Э. Фоли, Эмили Тьюмен-Описание: Харизматичный бабник получает по заслугам — его пенис таинственным образом отделяется от тела и принимает человеческий облик.-Рейтинг IMDB: -Качество: WEB-DL-AVC
Формат: MKV
Видео кодек: H.264
Аудио кодек: AC3
Видео: AVC, 1024 x 576, ~2097 kbps
Аудио: Русский: AC-3, 2 ch, ~384 kbps / Английский: AC-3, 6 ch, ~384 kbps

MI

Общее
Уникальный идентификатор : 175175492359602933707318759071466929052 (0x83C992979AF692F2A7554C2A60043B9C)
Полное имя : H: Bad.Johnson.2014.P.WEB-DL-AVC.mkv
Формат : Matroska
Версия формата : Version 4 / Version 2
Размер файла : 1,79 Гбайт
Продолжительность : 1 ч. 27 м.
Общий поток : 2924 Кбит/сек
Дата кодирования : UTC 2014-08-06 12:16:49
Программа кодирования : mkvmerge v7.0.0 ('Where We Going') 64bit built on Jun 9 2014 15:16:27
Библиотека кодирования : libebml v1.3.0 + libmatroska v1.4.1
_STATISTICS_WRITING_APP : mkvmerge v7.0.0 ('Where We Going') 64bit built on Jun 9 2014 15:16:27
_STATISTICS_WRITING_DATE_UTC : 2014-08-06 12:16:49
_STATISTICS_TAGS : BPS DURATION NUMBER_OF_FRAMES NUMBER_OF_BYTES
DURATION : 01:27:36.423000000
NUMBER_OF_FRAMES : 126028
NUMBER_OF_BYTES : 1415078830
Видео
Идентификатор : 1
Формат : AVC
Формат/Информация : Advanced Video Codec
Профиль формата : High@L4.1
Параметр CABAC формата : Да
Параметр ReFrames формата : 4 кадра
Идентификатор кодека : V_MPEG4/ISO/AVC
Продолжительность : 1 ч. 27 м.
Битрейт : 2097 Кбит/сек
Ширина : 1024 пикселя
Высота : 576 пикселей
Соотношение сторон : 16:9
Режим частоты кадров : Постоянный
Частота кадров : 23,976 кадра/сек
Цветовое пространство : YUV
Субдискретизация насыщенности : 4:2:0
Битовая глубина : 8 бит
Тип развёртки : Прогрессивная
Бит/(Пиксели*Кадры) : 0.148
Размер потока : 1,28 Гбайт (72%)
Язык : English
Default : Да
Forced : Нет
Аудио #1
Идентификатор : 2
Формат : AC-3
Формат/Информация : Audio Coding 3
Расширение режима : CM (complete main)
Параметр Endianness формата : Big
Идентификатор кодека : A_AC3
Продолжительность : 1 ч. 27 м.
Вид битрейта : Постоянный
Битрейт : 384 Кбит/сек
Каналы : 2 канала
Расположение каналов : Front: L R
Частота : 48,0 КГц
Битовая глубина : 16 бит
Метод сжатия : С потерями
Размер потока : 241 Мбайт (13%)
Язык : Russian
Default : Да
Forced : Нет
Аудио #2
Идентификатор : 3
Формат : AC-3
Формат/Информация : Audio Coding 3
Расширение режима : CM (complete main)
Параметр Endianness формата : Big
Идентификатор кодека : A_AC3
Продолжительность : 1 ч. 27 м.
Вид битрейта : Постоянный
Битрейт : 384 Кбит/сек
Каналы : 6 каналов
Расположение каналов : Front: L C R, Side: L R, LFE
Частота : 48,0 КГц
Битовая глубина : 16 бит
Метод сжатия : С потерями
Размер потока : 241 Мбайт (13%)
Язык : English
Default : Нет
Forced : Нет
Меню
00:00:00.000 : en:Chapter 1
00:09:43.000 : en:Chapter 2
00:20:55.000 : en:Chapter 3
00:30:02.000 : en:Chapter 4
00:39:34.000 : en:Chapter 5
00:49:31.000 : en:Chapter 6
00:59:45.000 : en:Chapter 7
01:09:00.000 : en:Chapter 8
01:21:07.000 : en:Chapter 9

Скриншоты

Источник:http://rutor.org/torrent/370924/za-konec-otvetish_b...avc-chistyj-zvuk
 
Показать сообщения:    

Текущее время: Сегодня 01:50

Часовой пояс: GMT



Вы не можете начинать темы
Вы не можете отвечать на сообщения
Вы не можете редактировать свои сообщения
Вы не можете удалять свои сообщения
Вы не можете голосовать в опросах
Вы не можете прикреплять файлы к сообщениям
Вы не можете скачивать файлы