Важное объявление!
У Нас Все раздачи мультитрекерные, при нуле пиров в релизах, можете смело вставать на закачку!
 
Автор Сообщение

HUNTER

Стаж:
4 года 4 месяца
Сообщений:
56783

Репутация: 101

[+] [-]
Вне форума [Профиль] [ЛС]

Жюдекс / Judex
Страна: Франция, Италия
Жанр: драма
Год выпуска: 1963
Продолжительность: 01:37:48
Перевод: Авторский (одноголосый закадровый) | Владимир Штейн
Перевод: Одноголосый закадровый | dimadima
Cубтитры: русские (Фениксклуб), английские
Оригинальная аудиодорожка: английский-Режиссер: Жорж Франжю / Georges Franju
В ролях: Чаннинг Поллок, Франсин Берже, Тео Сарапо, Эдит Скоб, Сильва Кошина, Рене Женен, Роже Фраде, Филипп Мариэль, Роже Фраде, Мишель Витольд, Эдуар Франкомм, Жак Жуанно, Луиджи Кортезе
Описание: Ремейк одноименного классического авантюрного киноромана, снятого в 1916 году Луи Фейадом.
В предвоенной Франции благополучно процветал банкир Фавро. Когда-то давно он при помощи шантажа и вымогательства сколотил первоначальный капитал, который затем весьма умело, поднял до больших финансовых высот. На вершине могущества он объявляет о помолвке своей дочери с представителем одной из аристократических семей Франции. В момент триумфа он получает записку от таинственного Жюдекса, требующего чтобы Фавро в целях сохранения собственной жизни отдал половину состояние всем тем, кого обманул и ограбил. Фавро нанимает частного детектива Кокатена найти и обезвредить шантажиста во время предстоящего костюмированного бала...
IMDb || КиноПоиск-Тип релиза: BDRemux 1080p
Контейнер: MKV
Видео: MPEG-4 AVC Video, 1920x1080 at 23.976 fps, 34996 kbps
Аудио#1: Russian: 48 kHz, AC3, 2.0 ch, 192 kbps |В.Штейн
Аудио#2: Russian: 48 kHz, AC3, 2.0 ch, 192 kbps |dimadima
Аудио#3: French: 48 kHz, LPCM, 1.0 ch, 1152 kbps
Формат субтитров: softsub (SRT)
Сэмпл
MediaInfo
General
Unique ID : 249594831127024820324034250195674581714 (0xBBC63746BDD9E3C589779B33FDBBCAD2)
Complete name : N:\Rutracker\Жюдекс\Judex.1963.Criterion.BDRemux. rutracker.mkv
Format : Matroska
Format version : Version 2
File size : 24.9 GiB
Duration : 1h 37mn
Overall bit rate mode : Variable
Overall bit rate : 36.4 Mbps
Movie name : Release for RuTracker
Encoded date : UTC 2014-06-22 02:39:12
Writing application : mkvmerge v5.0.1 ('Es ist Sommer') built on Nov 6 2011 16:23:40
Writing library : libebml v1.2.2 + libmatroska v1.3.0
Video
ID : 1
Format : AVC
Format/Info : Advanced Video Codec
Format profile : High@L4.1
Format settings, CABAC : Yes
Format settings, ReFrames : 4 frames
Codec ID : V_MPEG4/ISO/AVC
Duration : 1h 37mn
Bit rate mode : Variable
Maximum bit rate : 37.0 Mbps
Width : 1 920 pixels
Height : 1 080 pixels
Display aspect ratio : 16:9
Frame rate mode : Constant
Frame rate : 23.976 fps
Color space : YUV
Chroma subsampling : 4:2:0
Bit depth : 8 bits
Scan type : Progressive
Title : Judex.1963.Criterion.BDRemux. rutracker
Language : French
Default : Yes
Forced : No
Audio #1
ID : 2
Format : AC-3
Format/Info : Audio Coding 3
Mode extension : CM (complete main)
Format settings, Endianness : Big
Codec ID : A_AC3
Duration : 1h 37mn
Bit rate mode : Constant
Bit rate : 192 Kbps
Channel(s) : 2 channels
Channel positions : Front: L R
Sampling rate : 48.0 KHz
Bit depth : 16 bits
Compression mode : Lossy
Stream size : 134 MiB (1%)
Title : avo
Language : Russian
Default : Yes
Forced : No
Audio #2
ID : 3
Format : AC-3
Format/Info : Audio Coding 3
Mode extension : CM (complete main)
Format settings, Endianness : Big
Codec ID : A_AC3
Duration : 1h 37mn
Bit rate mode : Constant
Bit rate : 192 Kbps
Channel(s) : 2 channels
Channel positions : Front: L R
Sampling rate : 48.0 KHz
Bit depth : 16 bits
Compression mode : Lossy
Stream size : 134 MiB (1%)
Title : vo
Language : Russian
Default : No
Forced : No
Audio #3
ID : 4
Format : PCM
Codec ID : A_PCM/INT/LIT
Duration : 1h 37mn
Bit rate mode : Constant
Sampling rate : 48.0 KHz
Bit depth : 24 bits
Language : French
Default : No
Forced : No
Text #1
ID : 5
Format : UTF-8
Codec ID : S_TEXT/UTF8
Codec ID/Info : UTF-8 Plain Text
Language : Russian
Default : No
Forced : No
Text #2
ID : 6
Format : UTF-8
Codec ID : S_TEXT/UTF8
Codec ID/Info : UTF-8 Plain Text
Language : English
Default : No
Forced : No
Menu
00:00:00.000 : :1. Opening credits
00:02:22.600 : :2. Letter from Judex
00:10:02.393 : :3. Favraux's indiscretion
00:13:23.052 : :4. Masquerade ball
00:20:38.820 : :5. The night after
00:27:08.376 : :6. Jacqueline's inheritance
00:33:01.980 : :7. Breaking and entering
00:41:54.220 : :8. Pigeons
00:44:30.417 : :9. Favraux's grave
00:48:31.908 : :10. "She fell for the telegram"
00:53:06.099 : :11. Ambulance ambush
00:59:56.884 : :12. Deserted water mill
01:05:00.771 : :13. Vallieres's return
01:08:26.185 : :14. Cocantin and the kid
01:14:42.227 : :15. "That evening"
01:20:14.893 : :16. "Your loss, you fool!"
01:25:15.360 : :17. Daisy
01:27:58.106 : :18. Diana's demise
01:36:14.769 : :19. Homage
Скриншоты

_________________
Показать сообщения:    

Текущее время: Сегодня 21:48

Часовой пояс: GMT



Вы не можете начинать темы
Вы не можете отвечать на сообщения
Вы не можете редактировать свои сообщения
Вы не можете удалять свои сообщения
Вы не можете голосовать в опросах
Вы не можете прикреплять файлы к сообщениям
Вы не можете скачивать файлы