Важное объявление!
У Нас Все раздачи мультитрекерные, при нуле пиров в релизах, можете смело вставать на закачку!
 
Автор Сообщение

HUNTER

Стаж:
4 года 4 месяца
Сообщений:
56853

Репутация: 101

[+] [-]
Вне форума [Профиль] [ЛС]

______________________
[size=32]Журов 2

______________________
Год выпуска: 2010
Страна: Россия
Жанр: детектив
Субтитры: нет
В ролях:

Андрей Панин,
[url=http://ivmaxi.com/search.php?nm=Елена Сафонова]Елена Сафонова[/url], [url=http://ivmaxi.com/search.php?nm=Олеся Судзиловская]Олеся Судзиловская[/url], [url=http://ivmaxi.com/search.php?nm=Андрей Карако]Андрей Карако[/url], [url=http://ivmaxi.com/search.php?nm=Борис Полунин]Борис Полунин[/url], [url=http://ivmaxi.com/search.php?nm=Юлия Рутберг]Юлия Рутберг[/url], [url=http://ivmaxi.com/search.php?nm=Игорь Ливанов]Игорь Ливанов[/url], [url=http://ivmaxi.com/search.php?nm=Валерий Зеленский]Валерий Зеленский[/url], [url=http://ivmaxi.com/search.php?nm=Игорь Злотников]Игорь Злотников[/url], [url=http://ivmaxi.com/search.php?nm=Виталий Кравченко]Виталий Кравченко[/url]
Режиссёр:
Карен Оганесян
Описание:
Главный герой фильма — немолодой, честный, преданный своему делу работник прокуратуры. Как и в первой части, в очередных сериях он расследует шесть дел, встречаясь с самыми разными людьми, как по характерам, так и по социальному положению. И в каждом деле его опыт, смекалка и превосходное знание психологии позволяют докопаться до самой сути…
--Рейтинг:-


-- Продолжительность: 16 x ~ 00:50:00
Качество видео:DVDRip
Видео: кодек: XviD , формат: AVI , размер кадра: 720x400 , битрейт: 1 382 , фреймрейт: 25.000 fps
Аудио : язык: русский , перевод: оригинал , кодек: AC3 , каналы: 2.0 , битрейт: 128

МедиаИнфо

Complete name : ...Zhurow 2\Zhurow-2.01.2010.DVDRip..avi
Format : AVI
Format/Info : Audio Video Interleave
File size : 550 MiB
Duration : 50mn 43s
Overall bit rate : 1 517 Kbps
Writing application : VirtualDubMod 1.5.4.1 (build 2178/release)
Writing library : VirtualDubMod build 2178/release
Video
ID : 0
Format : MPEG-4 Visual
Format profile : Advanced Simple@L5
Format settings, BVOP : 1
Format settings, QPel : No
Format settings, GMC : No warppoints
Format settings, Matrix : Custom
Codec ID : XVID
Codec ID/Hint : XviD
Duration : 50mn 43s
Bit rate : 1 382 Kbps
Width : 720 pixels
Height : 400 pixels
Display aspect ratio : 16:9
Frame rate : 25.000 fps
Color space : YUV
Chroma subsampling : 4:2:0
Bit depth : 8 bits
Scan type : Progressive
Compression mode : Lossy
Bits/(Pixel*Frame) : 0.192
Stream size : 501 MiB (91%)
Writing library : XviD 1.2.1 (UTC 2008-12-04)
Audio
ID : 1
Format : AC-3
Format/Info : Audio Coding 3
Mode extension : CM (complete main)
Codec ID : 2000
Duration : 50mn 43s
Bit rate mode : Constant
Bit rate : 128 Kbps
Channel(s) : 2 channels
Channel positions : Front: L R
Sampling rate : 48.0 KHz
Bit depth : 16 bits
Compression mode : Lossy
Stream size : 46.4 MiB (8%)
Alignment : Split accross interleaves
Interleave, duration : 96 ms (2.40 video frames)
Interleave, preload duration : 96 ms

_________________
Показать сообщения:    

Текущее время: Сегодня 11:16

Часовой пояс: GMT



Вы не можете начинать темы
Вы не можете отвечать на сообщения
Вы не можете редактировать свои сообщения
Вы не можете удалять свои сообщения
Вы не можете голосовать в опросах
Вы не можете прикреплять файлы к сообщениям
Вы не можете скачивать файлы
Наши партнеры: интернет магазин Ивановского трикотажа textilla.ru