Важное объявление!
У Нас Все раздачи мультитрекерные, при нуле пиров в релизах, можете смело вставать на закачку!
 
Автор Сообщение

HUNTER

Стаж:
4 года 4 месяца
Сообщений:
56765

Репутация: 101

[+] [-]
Вне форума [Профиль] [ЛС]

Жизнь после жизни / Жизнь взаймы
Выпущено: Россия, Украина, Star Media
Жанр: криминальная мелодрама
Год выпуска: 2013
Продолжительность: 01:30:08
Субтитры: нет
Режиссер: Александр Будённый
В ролях: Юлия Маврина, Эвклид Кюрдзидис, Антон Пампушный, Юрий Назаров, Алёна Колесниченко, Сергей Сипливый, Ирина Мельник, Мирослав Белоногий, Александр Крыжановский, Марина Ягодкина, Константин Данилюк, Ашот Арушанов
Описание: Отчаявшись обрести счастье рядом с любимым человеком Дмитрием (тот является ее начальником и много старше девушки), журналистка Маша принимает ухаживания Юрия Комарова. Тот богат, красив, внимателен, благороден. Но вскоре после скоропалительного замужества Маша начинает замечать странности в поведении и образе жизни мужа. Маша постоянно слышит чьи-то шаги в своем доме, видит мелькающую тень в саду. Вскоре девушка узнает страшную тайну, а ее жизни станет угрожать смертельная опасность… Удастся ли Маше спастись? Кто окажется рядом в трудную минуту?

Автор рипа / записи: fanatus
Исходник: Запись с телеканала РОССИЯ HD
Качество: HDTVRip 720p
Формат: MKV
Видео кодек: H.264
Аудио кодек: AC3
Видео: MPEG-4 AVC, 3500 kbps , 1280x720 (16:9), 25.000 fps, 0.152 bit/pixel
Аудио: AC3, 2 ch, 48 kHz, 192 kbps
MediaInfo
General
Unique ID : 195555151569032597912099735789339113298 (0x931E8D5E32B48E2CBE48F5BE0E537752)
Complete name : F:\Zhizn posle zhizni.2013.x264.HDTVRip.720p.fanatus.mkv
Format : Matroska
Format version : Version 2
File size : 2.33 GiB
Duration : 1h 30mn
Overall bit rate : 3 693 Kbps
Encoded date : UTC 2013-10-19 09:11:10
Writing application : mkvmerge v3.4.0 ('Rapunzel') сборка от May 15 2010 09:38:20
Writing library : libebml v0.8.0 + libmatroska v0.9.0
Video
ID : 1
Format : AVC
Format/Info : Advanced Video Codec
Format profile : High@L4.1
Format settings, CABAC : Yes
Format settings, ReFrames : 9 frames
Codec ID : V_MPEG4/ISO/AVC
Duration : 1h 30mn
Bit rate : 3 500 Kbps
Width : 1 280 pixels
Height : 720 pixels
Display aspect ratio : 16:9
Frame rate : 25.000 fps
Color space : YUV
Chroma subsampling : 4:2:0
Bit depth : 8 bits
Scan type : Progressive
Bits/(Pixel*Frame) : 0.152
Stream size : 2.16 GiB (93%)
Title : Zhizn posle zhizni (2013) - fanatus
Writing library : x264 core 138 r2358 9e941d1
Encoding settings : cabac=1 / ref=9 / deblock=1:-2:-2 / analyse=0x3:0x113 / me=umh / subme=10 / psy=1 / psy_rd=1.00:0.10 / mixed_ref=1 / me_range=32 / chroma_me=1 / trellis=2 / 8x8dct=1 / cqm=0 / deadzone=21,11 / fast_pskip=0 / chroma_qp_offset=-3 / threads=16 / lookahead_threads=2 / sliced_threads=0 / nr=0 / decimate=0 / interlaced=0 / bluray_compat=0 / constrained_intra=0 / bframes=9 / b_pyramid=2 / b_adapt=2 / b_bias=0 / direct=3 / weightb=1 / open_gop=0 / weightp=2 / keyint=250 / keyint_min=25 / scenecut=40 / intra_refresh=0 / rc=2pass / mbtree=0 / bitrate=3500 / ratetol=1.0 / qcomp=0.65 / qpmin=0 / qpmax=69 / qpstep=4 / cplxblur=20.0 / qblur=0.5 / ip_ratio=1.40 / pb_ratio=1.30 / aq=1:0.90
Language : Russian
Default : Yes
Forced : No
Matrix coefficients : BT.709-5, BT.1361, IEC 61966-2-4 709, SMPTE RP177
Audio
ID : 2
Format : AC-3
Format/Info : Audio Coding 3
Mode extension : CM (complete main)
Format settings, Endianness : Big
Codec ID : A_AC3
Duration : 1h 30mn
Bit rate mode : Constant
Bit rate : 192 Kbps
Channel(s) : 2 channels
Channel positions : Front: L R
Sampling rate : 48.0 KHz
Bit depth : 16 bits
Compression mode : Lossy
Stream size : 124 MiB (5%)
Title : Original
Language : Russian
Default : Yes
Forced : No
Скриншот c названием фильмаСкриншоты

_________________
Показать сообщения:    

Текущее время: Сегодня 21:00

Часовой пояс: GMT



Вы не можете начинать темы
Вы не можете отвечать на сообщения
Вы не можете редактировать свои сообщения
Вы не можете удалять свои сообщения
Вы не можете голосовать в опросах
Вы не можете прикреплять файлы к сообщениям
Вы не можете скачивать файлы